<?xml version="1.0" standalone="no"?>
<!DOCTYPE svg PUBLIC "-//W3C//DTD SVG 1.1//EN" "http://www.w3.org/Graphics/SVG/1.1/DTD/svg11.dtd" >
<svg xmlns="http://www.w3.org/2000/svg" xmlns:xlink="http://www.w3.org/1999/xlink" version="1.1">
<metadata>
Created by FontForge 20170731 at Mon Nov  2 12:38:02 2020
 By Aleksey,,,
Copyright (c) 2006 The Hoefler Type Foundry, Inc., dba Hoefler &#38; Frere-Jones. All Rights Reserved.
</metadata>
<defs>
<font id="Verlag-Bold" horiz-adv-x="470" >
  <font-face 
    font-family="Verlag Bold"
    font-weight="400"
    font-stretch="normal"
    units-per-em="1000"
    panose-1="0 0 0 0 0 0 0 0 0 0"
    ascent="800"
    descent="-200"
    x-height="427"
    cap-height="733"
    bbox="-60 -254 1009 988"
    underline-thickness="50"
    underline-position="-150"
    unicode-range="U+0020-2212"
  />
<missing-glyph horiz-adv-x="500" 
 />
    <glyph glyph-name="fi" unicode="fi" horiz-adv-x="578" 
d="M402 0v427h114v-427h-114zM343 635q-9 2 -20 3t-22 1q-44 0 -65 -23t-21 -85v-104h120v-92h-120v-335h-113v335h-79v15l79 81v100q0 99 45 154t139 55q20 0 36.5 -2t33.5 -7zM526 575q0 -28 -19 -47.5t-47 -19.5t-47.5 19.5t-19.5 47.5t19.5 47.5t47.5 19.5t47 -19.5
t19 -47.5z" />
    <glyph glyph-name="fl" unicode="fl" horiz-adv-x="574" 
d="M400 0v733h113v-733h-113zM343 635q-9 2 -20 3t-22 1q-44 0 -65 -23t-21 -85v-104h120v-92h-120v-335h-113v335h-79v15l79 81v100q0 99 45 154t139 55q20 0 36.5 -2t33.5 -7z" />
    <glyph glyph-name=".notdef" horiz-adv-x="500" 
 />
    <glyph glyph-name=".null" horiz-adv-x="0" 
 />
    <glyph glyph-name="nonmarkingreturn" horiz-adv-x="215" 
 />
    <glyph glyph-name="space" unicode=" " horiz-adv-x="215" 
 />
    <glyph glyph-name="exclam" unicode="!" horiz-adv-x="262" 
d="M196 58q0 -28 -19 -47t-46 -19t-46 19t-19 47q0 27 19 46t46 19t46 -19t19 -46zM170 205h-78l-24 528h126z" />
    <glyph glyph-name="quotedbl" unicode="&#x22;" horiz-adv-x="426" 
d="M260 431l-50 33l111 221l87 -57zM86 442l-49 33l110 220l87 -57z" />
    <glyph glyph-name="numbersign" unicode="#" horiz-adv-x="613" 
d="M268 358l-29 -132h106l29 132h-106zM570 358h-106l-30 -132h107l-18 -82h-107l-31 -144h-89l32 144h-107l-31 -144h-90l32 144h-107l19 82h106l29 132h-106l18 82h105l32 143h89l-31 -143h106l32 143h89l-32 -143h107z" />
    <glyph glyph-name="dollar" unicode="$" horiz-adv-x="480" 
d="M167 432q0 -22 13.5 -37.5t40.5 -29.5l11 133q-32 -5 -48.5 -22.5t-16.5 -43.5zM330 159q0 25 -13.5 42t-42.5 31l-13 -146q33 5 51 23t18 50zM314 662l-7 -72q37 -5 67 -17t53 -26l-37 -93q-18 12 -41.5 23t-49.5 17l-14 -156q40 -15 68.5 -31.5t47 -37t27.5 -45
t9 -56.5q0 -37 -13.5 -69t-38 -55.5t-58.5 -37.5t-74 -17l-6 -71l-67 3l6 71q-46 6 -84.5 23t-68.5 37l42 95q26 -20 56.5 -35t62.5 -22l15 168q-76 29 -112 66t-36 98q0 33 12.5 63t36 53t57 37.5t74.5 17.5l6 72z" />
    <glyph glyph-name="percent" unicode="%" horiz-adv-x="706" 
d="M576 141q0 37 -13.5 60.5t-39.5 23.5t-39.5 -23.5t-13.5 -60.5t13.5 -61t39.5 -24t39.5 24t13.5 61zM236 443q0 37 -13.5 60.5t-39.5 23.5t-39.5 -23.5t-13.5 -60.5t13.5 -60.5t39.5 -23.5t39.5 23.5t13.5 60.5zM656 141q0 -30 -9 -57.5t-26 -48t-42 -33t-57 -12.5
t-56.5 12.5t-41 33t-25 48t-8.5 57.5t8.5 57t25.5 47.5t42 33t57 12.5t57 -12.5t41.5 -33t25 -47.5t8.5 -57zM142 -18l-52 44l474 574l52 -43zM316 443q0 -30 -9 -57.5t-26 -48t-42 -33t-57 -12.5t-56.5 12.5t-41.5 33t-25.5 48t-8.5 57.5t9 57t26 48t42 33t57 12t57 -12
t41.5 -33t25 -48t8.5 -57z" />
    <glyph glyph-name="ampersand" unicode="&#x26;" horiz-adv-x="632" 
d="M357 122q-37 35 -68 67.5t-57 64.5q-31 -13 -50 -37.5t-19 -54.5q0 -36 25 -58t66 -22q26 0 51.5 11t51.5 29zM374 449q0 26 -17.5 44.5t-44.5 18.5q-26 0 -44.5 -21t-18.5 -52q0 -18 7.5 -40t24.5 -46q51 20 72 45.5t21 50.5zM594 235q-23 -29 -47 -57t-49 -54
q19 -17 39.5 -34.5t42.5 -34.5l-66 -70q-23 19 -46 37.5t-43 36.5q-41 -32 -85.5 -50.5t-94.5 -18.5q-39 0 -74 11t-62 32t-43 52t-16 71q0 54 37 97t97 70q-40 63 -40 114q0 33 13.5 62.5t36.5 51t53.5 34.5t64.5 13q38 0 67.5 -12.5t50 -32.5t31.5 -45t11 -51
q0 -48 -33.5 -92t-111.5 -73q20 -24 46 -51t58 -56q26 25 49 52.5t44 55.5z" />
    <glyph glyph-name="quotesingle" unicode="'" horiz-adv-x="252" 
d="M86 442l-49 33l110 220l87 -57z" />
    <glyph glyph-name="parenleft" unicode="(" horiz-adv-x="362" 
d="M318 -239q-66 42 -116 98t-83.5 120.5t-50 135.5t-16.5 143q0 73 16.5 144t50 135.5t83.5 120t116 97.5l52 -74q-112 -72 -165.5 -183t-53.5 -240q0 -64 13.5 -124.5t40.5 -114.5t68 -100.5t97 -82.5z" />
    <glyph glyph-name="parenright" unicode=")" horiz-adv-x="362" 
d="M310 258q0 -72 -16.5 -143t-49.5 -135.5t-83 -120.5t-117 -98l-52 75q56 36 97.5 82.5t68.5 100.5t40.5 114.5t13.5 124.5q0 129 -54 240t-166 183l52 74q67 -42 117 -97.5t83 -120t49.5 -135.5t16.5 -144z" />
    <glyph glyph-name="asterisk" unicode="*" horiz-adv-x="395" 
d="M247 564l72 -84l-63 -45l-59 93l-59 -93l-63 45l72 84l-108 27l24 73l103 -41l-8 109h78l-8 -109l103 41l24 -73z" />
    <glyph glyph-name="plus" unicode="+" horiz-adv-x="459" 
d="M275 245v-131h-91v131h-124v87h124v131h91v-131h124v-87h-124z" />
    <glyph glyph-name="comma" unicode="," horiz-adv-x="247" 
d="M190 43q0 -22 -8.5 -47t-24 -48t-37.5 -43.5t-50 -34.5l-13 19q30 26 45.5 51.5t23.5 52.5q-30 2 -48 21t-18 45t18 44t44 18q33 0 50.5 -23t17.5 -55z" />
    <glyph glyph-name="hyphen" unicode="-" horiz-adv-x="345" 
d="M49 201v87h248v-87h-248z" />
    <glyph glyph-name="period" unicode="." horiz-adv-x="247" 
d="M59 58q0 27 19 46t46 19t46 -19t19 -46q0 -28 -19 -47t-46 -19t-46 19t-19 47z" />
    <glyph glyph-name="slash" unicode="/" horiz-adv-x="356" 
d="M118 -216h-90l239 949h89z" />
    <glyph glyph-name="zero" unicode="0" horiz-adv-x="562" 
d="M403 292q0 45 -7.5 82.5t-22.5 65.5t-37.5 43.5t-53.5 15.5q-30 0 -53 -15.5t-38 -43.5t-22.5 -65.5t-7.5 -82.5t7.5 -82.5t22.5 -65.5t38 -43.5t53 -15.5q31 0 53.5 15.5t37.5 43.5t22.5 65.5t7.5 82.5zM520 292q0 -60 -15.5 -115t-45.5 -96.5t-75 -66t-104 -24.5
t-103 24.5t-73.5 66t-44.5 96.5t-15 115q0 61 15.5 115.5t45.5 96t75 65.5t104 24t103 -24t73.5 -65.5t44.5 -96t15 -115.5z" />
    <glyph glyph-name="one" unicode="1" horiz-adv-x="376" 
d="M163 0v455l-101 -39l-36 96l220 84h30v-596h-113z" />
    <glyph glyph-name="two" unicode="2" horiz-adv-x="464" 
d="M29 0l-2 47q69 66 116 115t77 87q36 44 54 78.5t18 69.5q0 43 -25.5 68.5t-73.5 25.5q-58 0 -115 -38l-38 88q37 25 77 38.5t88 13.5q47 0 84 -13.5t63 -37.5t40 -56.5t14 -69.5q0 -45 -19 -89t-59 -96q-24 -30 -54.5 -63.5t-68.5 -69.5h212v-98h-388z" />
    <glyph glyph-name="three" unicode="3" horiz-adv-x="455" 
d="M239 341q91 -10 131.5 -54.5t40.5 -109.5q0 -37 -15 -70.5t-43 -59.5t-68.5 -41.5t-90.5 -15.5q-46 0 -84 7.5t-75 19.5l26 94q66 -22 125 -22q51 0 81 22t30 64q0 38 -31.5 61.5t-95.5 23.5q-20 0 -37 -1t-34 -5l-17 39l174 192h-212v98h368l2 -54z" />
    <glyph glyph-name="four" unicode="4" horiz-adv-x="499" 
d="M282 391l-122 -152h122v152zM390 147v-149h-108v149h-260v60l312 387h56v-355h87v-92h-87z" />
    <glyph glyph-name="five" unicode="5" horiz-adv-x="485" 
d="M440 189q0 -41 -15.5 -77.5t-45 -63.5t-71 -42.5t-94.5 -15.5q-41 0 -80 7t-76 20l21 96q29 -11 60.5 -18t65.5 -7q62 0 93 27.5t31 67.5q0 41 -31 65t-97 24q-27 0 -55.5 -2.5t-54.5 -9.5l-9 11v312h327v-98h-221v-119q11 1 23.5 1.5t22.5 0.5q53 0 92 -13.5t64.5 -37.5
t37.5 -57t12 -71z" />
    <glyph glyph-name="six" unicode="6" horiz-adv-x="503" 
d="M348 187q0 48 -25 77.5t-68 29.5q-48 0 -74 -27.5t-26 -78.5q0 -46 27 -77t70 -31q23 0 41 8.5t30 23.5t18.5 34.5t6.5 40.5zM458 193q0 -37 -13.5 -73.5t-40 -65t-64.5 -46.5t-88 -18q-47 0 -85.5 16t-65.5 44.5t-42 67t-15 83.5q0 54 17 108t56 106t101.5 101.5
t153.5 94.5l47 -88q-81 -38 -143 -82.5t-94 -98.5q41 33 99 33q42 0 75 -14.5t55.5 -39.5t34.5 -58t12 -70z" />
    <glyph glyph-name="seven" unicode="7" horiz-adv-x="458" 
d="M189 0h-114l213 482h-246v101h405z" />
    <glyph glyph-name="eight" unicode="8" horiz-adv-x="510" 
d="M341 170q0 38 -23.5 61.5t-62.5 23.5t-62.5 -23.5t-23.5 -61.5q0 -37 23.5 -61.5t62.5 -24.5t62.5 24.5t23.5 61.5zM337 417q0 35 -22.5 58.5t-59.5 23.5t-59.5 -23.5t-22.5 -58.5q0 -36 22.5 -59t59.5 -23t59.5 23t22.5 59zM455 157q0 -34 -14 -64t-40 -53t-63 -36.5
t-83 -13.5t-83 13.5t-63 36.5t-40 53t-14 64q0 46 23.5 82.5t71.5 58.5q-83 44 -83 131q0 34 13.5 64t38 52t59.5 35t77 13t76.5 -13t59 -35t38 -52t13.5 -64q0 -87 -82 -131q48 -22 71.5 -58.5t23.5 -82.5z" />
    <glyph glyph-name="nine" unicode="9" horiz-adv-x="498" 
d="M348 399q0 46 -26 75.5t-69 29.5q-46 0 -70 -31t-24 -73q0 -48 24 -77t68 -29q48 0 72.5 27.5t24.5 77.5zM460 379q0 -52 -17 -105t-56 -105t-102 -101.5t-154 -94.5l-47 85q163 82 232 179q-17 -11 -38.5 -18t-48.5 -7q-42 0 -75.5 14t-56.5 39t-35.5 58t-12.5 70
q0 38 14 74t40 64t64.5 45t86.5 17t86 -16t65 -44.5t41 -67.5t14 -86z" />
    <glyph glyph-name="colon" unicode=":" horiz-adv-x="247" 
d="M59 321q0 26 19 45.5t46 19.5t46 -19.5t19 -45.5q0 -28 -19 -47t-46 -19t-46 19t-19 47zM59 58q0 27 19 46t46 19t46 -19t19 -46q0 -28 -19 -47t-46 -19t-46 19t-19 47z" />
    <glyph glyph-name="semicolon" unicode=";" horiz-adv-x="247" 
d="M59 321q0 26 19 45.5t46 19.5t46 -19.5t19 -45.5q0 -28 -19 -47t-46 -19t-46 19t-19 47zM190 43q0 -22 -8.5 -47t-24 -48t-37.5 -43.5t-50 -34.5l-13 19q30 26 45.5 51.5t23.5 52.5q-30 2 -48 21t-18 45t18 44t44 18q33 0 50.5 -23t17.5 -55z" />
    <glyph glyph-name="less" unicode="&#x3c;" horiz-adv-x="394" 
d="M290 45l-252 243l252 244l65 -69l-185 -176l185 -174z" />
    <glyph glyph-name="equal" unicode="=" horiz-adv-x="431" 
d="M60 166v84h311v-84h-311zM60 326v85h311v-85h-311z" />
    <glyph glyph-name="greater" unicode="&#x3e;" horiz-adv-x="394" 
d="M105 45l-66 70l185 175l-185 175l66 67l251 -243z" />
    <glyph glyph-name="question" unicode="?" horiz-adv-x="394" 
d="M208 58q0 -28 -19 -47t-47 -19q-27 0 -46 19t-19 47q0 27 19 46t46 19q28 0 47 -19t19 -46zM377 567q0 -37 -13.5 -65t-34 -50.5t-44 -42.5t-44 -40t-34 -43t-13.5 -52v-57h-101v72q0 34 11.5 60.5t29 48.5t37.5 41t37.5 37t29 37t11.5 42q0 40 -26.5 59.5t-74.5 19.5
q-27 0 -52 -5t-51 -15l-22 100q35 12 70.5 19t75.5 7q53 0 92 -13.5t64.5 -37t38.5 -55t13 -67.5z" />
    <glyph glyph-name="at" unicode="@" horiz-adv-x="687" 
d="M392 251q-11 8 -21.5 12t-25.5 4q-18 0 -30.5 -9t-12.5 -25q0 -36 43 -36q29 0 47 23v31zM640 315q0 -47 -16.5 -86t-50.5 -64q-14 -11 -32 -16t-36 -5q-26 0 -49 12t-35 37q-20 -21 -44.5 -32.5t-55.5 -11.5q-38 0 -65 21.5t-27 61.5q0 35 25.5 57.5t69.5 22.5
q23 0 38.5 -4t29.5 -11v9q0 29 -15.5 42t-45.5 13q-15 0 -31 -2.5t-33 -7.5l-8 56q18 6 41.5 10t43.5 4q64 0 91.5 -29.5t27.5 -88.5v-64q0 -26 14 -36.5t31 -10.5q21 0 35 11q18 14 28.5 42t10.5 63q0 37 -13 77.5t-41 74t-73 55.5t-109 22q-48 0 -90.5 -19.5t-75 -53.5
t-51 -78.5t-18.5 -95.5t17.5 -96t51.5 -78.5t83.5 -53.5t113.5 -20q27 0 58.5 6.5t60.5 16.5l14 -53q-35 -11 -71 -17.5t-65 -6.5q-75 0 -135 24t-102 65t-64.5 96t-22.5 117t23.5 116.5t64 95.5t94.5 65t114 24q74 0 129 -25.5t91.5 -65.5t55 -89t18.5 -96z" />
    <glyph glyph-name="A" unicode="A" horiz-adv-x="687" 
d="M342 512l-104 -245h208zM558 0l-71 168h-290l-71 -168h-129l338 743h18l337 -743h-132z" />
    <glyph glyph-name="B" unicode="B" horiz-adv-x="616" 
d="M442 217q0 48 -41 80t-122 32q-20 0 -41.5 -0.5t-34.5 -2.5v-220q19 -2 41 -3.5t48 -1.5q75 0 112.5 32t37.5 84zM427 526q0 46 -34 75.5t-103 29.5q-23 0 -45.5 -2t-41.5 -5v-203q27 -3 74 -3q40 0 68.5 8.5t46.5 23t26.5 34t8.5 42.5zM576 204q0 -41 -19 -79
t-56.5 -67.5t-93 -47t-129.5 -17.5q-47 0 -98.5 4t-99.5 10v718q41 6 92 10t96 4q72 0 126 -16t90 -43t54 -61.5t18 -71.5q0 -58 -29.5 -99.5t-98.5 -67.5q81 -23 114.5 -69t33.5 -107z" />
    <glyph glyph-name="C" unicode="C" horiz-adv-x="719" 
d="M689 57q-46 -29 -108 -49t-131 -20q-87 0 -159.5 28.5t-125 79t-81.5 119.5t-29 151q0 81 29.5 150.5t82 120.5t125 79.5t158.5 28.5q69 0 129 -19t107 -48l-43 -106q-44 25 -95 40.5t-100 15.5q-60 0 -108 -19t-81.5 -53.5t-51.5 -83t-18 -106.5t18.5 -106t52.5 -82.5
t82.5 -53.5t108.5 -19q49 0 102 16t98 42z" />
    <glyph glyph-name="D" unicode="D" horiz-adv-x="772" 
d="M583 373q0 57 -18 104t-54 80.5t-89 52t-123 18.5q-55 0 -94 -6v-511q23 -4 46 -5t59 -1q71 0 122 20t85 56t50 85t16 107zM717 373q0 -77 -26 -146t-78.5 -120.5t-132.5 -82t-189 -30.5q-30 0 -56.5 1t-51.5 2.5t-50 3.5t-53 5v720q54 6 101.5 9t102.5 3q109 0 190 -29
t135 -79t81 -116.5t27 -140.5z" />
    <glyph glyph-name="E" unicode="E" horiz-adv-x="594" 
d="M80 0v733h447v-114h-322v-192h291v-110h-291v-203h322v-114h-447z" />
    <glyph glyph-name="F" unicode="F" horiz-adv-x="555" 
d="M205 619v-214h283v-111h-283v-294h-125v733h447v-114h-322z" />
    <glyph glyph-name="G" unicode="G" horiz-adv-x="775" 
d="M717 388v-320q-59 -38 -124.5 -59t-148.5 -21q-78 0 -149 27.5t-124 77t-84.5 119t-31.5 154.5q0 86 32 155.5t85.5 119.5t124 77t147.5 27q81 0 142.5 -20.5t117.5 -55.5l-57 -100q-45 29 -95.5 45t-101.5 16q-63 0 -111.5 -20.5t-81.5 -56.5t-50.5 -84t-17.5 -103
q0 -58 20 -107.5t55.5 -84.5t83 -55t101.5 -20q48 0 82 8.5t66 26.5v144h-171v110h291z" />
    <glyph glyph-name="H" unicode="H" horiz-adv-x="747" 
d="M542 0v315h-337v-315h-125v733h125v-306h337v306h125v-733h-125z" />
    <glyph glyph-name="I" unicode="I" horiz-adv-x="295" 
d="M85 0v733h125v-733h-125z" />
    <glyph glyph-name="J" unicode="J" horiz-adv-x="503" 
d="M428 236q0 -55 -13.5 -100.5t-42 -78.5t-73 -51t-106.5 -18q-54 0 -97 13t-82 39l47 102q26 -18 60.5 -29t69.5 -11q59 0 85.5 35t26.5 107v489h125v-497z" />
    <glyph glyph-name="K" unicode="K" horiz-adv-x="672" 
d="M505 0l-300 352v-352h-125v733h125v-330l288 330h151l-320 -352l336 -381h-155z" />
    <glyph glyph-name="L" unicode="L" horiz-adv-x="545" 
d="M80 0v733h125v-619h322v-114h-447z" />
    <glyph glyph-name="M" unicode="M" horiz-adv-x="883" 
d="M690 0l-10 439l-231 -350h-15l-233 351l-8 -440h-123l31 742l19 2l325 -486l317 486l20 -2l31 -742h-123z" />
    <glyph glyph-name="N" unicode="N" horiz-adv-x="758" 
d="M664 -14l-459 484v-470h-125v743l20 4l453 -477v463h125v-744z" />
    <glyph glyph-name="O" unicode="O" horiz-adv-x="851" 
d="M662 366q0 57 -17.5 106t-48.5 85t-74.5 56t-95.5 20t-96 -20t-75 -56t-48.5 -85t-17.5 -106t17.5 -106t48.5 -84.5t75 -56t96 -20.5t95.5 20.5t74.5 56t48.5 84.5t17.5 106zM796 366q0 -81 -28.5 -150.5t-79 -120t-118.5 -79t-148 -28.5q-79 0 -146.5 28.5t-116.5 79
t-76.5 120t-27.5 150.5q0 82 28.5 151.5t79 120t119 79t147.5 28.5q80 0 147 -28.5t116 -79t76.5 -120t27.5 -151.5z" />
    <glyph glyph-name="P" unicode="P" horiz-adv-x="599" 
d="M440 487q0 27 -9.5 51.5t-28.5 43.5t-48 30t-67 11q-43 0 -82 -6v-268q19 -2 36 -3t34 -1q85 0 125 39.5t40 102.5zM570 491q0 -56 -19.5 -103t-56.5 -80.5t-91.5 -52.5t-124.5 -19q-18 0 -36.5 1t-36.5 2v-239h-125v726q98 12 186 12q75 0 132 -19.5t95.5 -53
t57.5 -78.5t19 -96z" />
    <glyph glyph-name="Q" unicode="Q" horiz-adv-x="851" 
d="M662 366q0 57 -17.5 106t-49 85t-74.5 56t-95 20t-95.5 -20t-74.5 -56t-48.5 -85t-17.5 -106t17.5 -106t48.5 -84.5t74.5 -56t95.5 -20.5q35 0 66.5 10t57.5 28l-121 106l77 88q31 -29 57 -52q22 -19 41 -36.5t21 -19.5q17 31 27 66.5t10 76.5zM732 -27q-20 18 -38 35
q-15 14 -30.5 28t-24.5 22q-47 -33 -101.5 -51.5t-115.5 -18.5q-79 0 -146.5 28.5t-116.5 79t-76.5 120t-27.5 150.5q0 82 28.5 151.5t79 120t119 79t147.5 28.5q80 0 147.5 -28.5t116 -79t76 -120t27.5 -151.5q0 -65 -20 -122.5t-55 -104.5q8 -7 23 -20t29 -26
q17 -15 36 -31z" />
    <glyph glyph-name="R" unicode="R" horiz-adv-x="633" 
d="M442 501q0 56 -40 90.5t-112 34.5q-23 0 -44 -1t-40 -5v-250q17 -2 35.5 -3t36.5 -1q82 0 123 36t41 99zM478 0l-160 264q-10 -1 -19 -1h-20q-18 0 -36.5 0.5t-36.5 1.5v-265h-125v726q44 5 90.5 8.5t102.5 3.5q78 0 134.5 -18t93.5 -49t54.5 -73t17.5 -91
q0 -72 -37 -127t-106 -85l192 -295h-145z" />
    <glyph glyph-name="S" unicode="S" horiz-adv-x="537" 
d="M497 207q0 -44 -16.5 -84t-48 -70t-76 -47.5t-101.5 -17.5q-63 0 -122.5 20t-107.5 52l43 112q44 -32 93.5 -50t97.5 -18q29 0 50 8t34.5 21t20 30.5t6.5 36.5t-5 35t-20 31.5t-42 31.5t-71 34q-96 41 -135 91.5t-39 116.5q0 40 16 77t47 65.5t76 45.5t102 17
q54 0 103 -15.5t81 -37.5l-40 -110q-15 10 -32.5 19.5t-37 16.5t-39 11.5t-38.5 4.5q-58 0 -85.5 -27t-27.5 -64t29.5 -62.5t97.5 -55.5q54 -24 90 -47.5t57.5 -49.5t30.5 -55.5t9 -65.5z" />
    <glyph glyph-name="T" unicode="T" horiz-adv-x="640" 
d="M383 619v-619h-125v619h-233v114h590v-114h-232z" />
    <glyph glyph-name="U" unicode="U" horiz-adv-x="729" 
d="M658 281q0 -70 -21 -124.5t-59 -92t-92.5 -57t-122.5 -19.5q-138 0 -214.5 75t-76.5 218v452h125v-443q0 -95 44 -141.5t124 -46.5q79 0 123.5 47t44.5 141v443h125v-452z" />
    <glyph glyph-name="V" unicode="V" horiz-adv-x="688" 
d="M352 -10h-16l-339 743h143l206 -488l205 488h139z" />
    <glyph glyph-name="W" unicode="W" horiz-adv-x="969" 
d="M732 -12l-20 -2l-228 510l-225 -510l-19 2l-235 745h138l132 -462l204 468h14l205 -465l130 459h136z" />
    <glyph glyph-name="X" unicode="X" horiz-adv-x="703" 
d="M534 0l-183 275l-184 -275h-147l256 362l-256 371h150l183 -275l185 275h146l-256 -361l256 -372h-150z" />
    <glyph glyph-name="Y" unicode="Y" horiz-adv-x="671" 
d="M398 308v-308h-125v309l-258 424h143l180 -310l178 310h140z" />
    <glyph glyph-name="Z" unicode="Z" horiz-adv-x="650" 
d="M231 114h380v-114h-576l-5 15l389 604h-363v114h559l5 -15z" />
    <glyph glyph-name="bracketleft" unicode="[" horiz-adv-x="322" 
d="M79 -216v949h221v-87h-126v-776h126v-86h-221z" />
    <glyph glyph-name="backslash" unicode="\" horiz-adv-x="356" 
d="M238 -216l-238 949h89l239 -949h-90z" />
    <glyph glyph-name="bracketright" unicode="]" horiz-adv-x="322" 
d="M23 -216v86h125v776h-125v87h221v-949h-221z" />
    <glyph glyph-name="asciicircum" unicode="^" 
d="M300 491l-65 84l-64 -84h-101l148 177h45l144 -177h-107z" />
    <glyph glyph-name="underscore" unicode="_" horiz-adv-x="520" 
d="M0 0v68h520v-68h-520z" />
    <glyph glyph-name="grave" unicode="`" 
d="M335 479l-204 91l53 97l184 -135z" />
    <glyph glyph-name="a" unicode="a" horiz-adv-x="459" 
d="M300 160q-23 15 -41.5 22t-46.5 7q-32 0 -53.5 -16t-21.5 -45t20 -45.5t57 -16.5q29 0 50 11t36 30v53zM304 0v41q-24 -23 -53.5 -36t-70.5 -13q-31 0 -58.5 9t-47.5 26.5t-32 42.5t-12 57q0 29 11 53t31.5 42t49 28t63.5 10q39 0 65 -8t50 -19v18q0 50 -26 72.5
t-77 22.5q-26 0 -53.5 -5t-52.5 -13l-13 85q29 9 67 15.5t70 6.5q101 0 149 -47t48 -141v-247h-108z" />
    <glyph glyph-name="b" unicode="b" horiz-adv-x="534" 
d="M382 217q0 56 -27.5 92t-82.5 36q-32 0 -57.5 -11.5t-44.5 -31.5v-171q17 -22 42 -35t54 -13q54 0 85 37t31 97zM495 219q0 -46 -16 -87.5t-44 -72.5t-65 -49t-78 -18q-35 0 -68 11.5t-58 34.5v-38h-109v733h113v-344q24 22 56.5 34t72.5 12q42 0 78 -16t62 -44.5
t41 -68.5t15 -87z" />
    <glyph glyph-name="c" unicode="c" horiz-adv-x="432" 
d="M420 35q-29 -18 -66.5 -30.5t-76.5 -12.5q-57 0 -101.5 17.5t-75.5 47.5t-47.5 70t-16.5 85t16.5 85.5t47.5 71t75.5 48.5t101.5 18q39 0 76.5 -12.5t66.5 -30.5l-37 -79q-25 14 -51.5 22t-56.5 8q-27 0 -50 -8t-40 -24.5t-27 -41t-10 -56.5q0 -30 10.5 -53.5t29 -40
t42.5 -25.5t51 -9q29 0 56.5 8t50.5 22z" />
    <glyph glyph-name="d" unicode="d" horiz-adv-x="531" 
d="M364 295q-16 20 -42 35t-58 15q-48 0 -80 -34t-32 -97q0 -59 29.5 -95t84.5 -36q59 0 98 48v164zM368 0v40q-26 -25 -56.5 -36.5t-71.5 -11.5q-45 0 -82 16.5t-63.5 46t-41 69.5t-14.5 88q0 46 16.5 86.5t45 71t66 48t79.5 17.5q41 0 68 -10t50 -28v336h113v-733h-109z
" />
    <glyph glyph-name="e" unicode="e" horiz-adv-x="476" 
d="M346 250q-4 44 -28.5 70t-67.5 26q-42 0 -68 -25t-32 -71h196zM447 230q0 -11 -0.5 -25.5t-2.5 -25.5h-296q7 -45 37 -71.5t96 -26.5q27 0 59.5 6.5t64.5 16.5l14 -88q-39 -11 -78 -17.5t-71 -6.5q-60 0 -104 17.5t-73 47.5t-43 70t-14 85q0 43 14 83.5t41.5 71.5
t68 49.5t92.5 18.5q48 0 84.5 -16t61 -43.5t37 -65t12.5 -80.5z" />
    <glyph glyph-name="f" unicode="f" horiz-adv-x="339" 
d="M343 635q-9 2 -20 3t-22 1q-44 0 -65 -23t-21 -85v-104h120v-92h-120v-335h-113v335h-79v15l79 81v100q0 99 45 154t139 55q20 0 36.5 -2t33.5 -7z" />
    <glyph glyph-name="g" unicode="g" horiz-adv-x="529" 
d="M364 301q-17 18 -41.5 30.5t-54.5 12.5q-52 0 -84 -37t-32 -100q0 -54 30.5 -90t88.5 -36q29 0 52.5 11.5t40.5 31.5v177zM477 -22q0 -56 -13.5 -94.5t-39.5 -62.5t-62.5 -34.5t-83.5 -10.5q-32 0 -69.5 5.5t-72.5 15.5l11 100q29 -10 59 -15t54 -5q54 0 79 22.5t25 76.5
v52q-21 -17 -49.5 -26.5t-65.5 -9.5q-45 0 -83.5 15t-66.5 42.5t-44 67.5t-16 91q0 47 17 88.5t45.5 72.5t66.5 48.5t80 17.5q38 0 67.5 -10.5t52.5 -28.5v31h109v-449z" />
    <glyph glyph-name="h" unicode="h" horiz-adv-x="515" 
d="M352 0v264q0 41 -16.5 59t-50.5 18q-29 0 -59.5 -17t-54.5 -43v-281h-114v733h113v-375q73 77 155 77q71 0 106 -40t35 -103v-292h-114z" />
    <glyph glyph-name="i" unicode="i" horiz-adv-x="237" 
d="M62 0v427h114v-427h-114zM186 575q0 -28 -19.5 -47.5t-47.5 -19.5t-47 19.5t-19 47.5t19 47.5t47 19.5t47.5 -19.5t19.5 -47.5z" />
    <glyph glyph-name="j" unicode="j" horiz-adv-x="237" 
d="M177 -57q0 -167 -161 -167q-35 0 -73 8l11 94q10 -2 20 -3t21 -1q34 0 51 14.5t17 55.5v483h114v-484zM187 575q0 -28 -19.5 -47.5t-47.5 -19.5t-47 19.5t-19 47.5t19 47.5t47 19.5t47.5 -19.5t19.5 -47.5z" />
    <glyph glyph-name="k" unicode="k" horiz-adv-x="476" 
d="M336 0l-166 202v-202h-113v733h113v-489l158 183h136l-189 -201l197 -226h-136z" />
    <glyph glyph-name="l" unicode="l" horiz-adv-x="231" 
d="M59 0v733h113v-733h-113z" />
    <glyph glyph-name="m" unicode="m" horiz-adv-x="780" 
d="M617 0v267q0 37 -14 55t-46 18q-28 0 -54 -15t-52 -44v-281h-114v264q0 39 -14 58t-48 19q-29 0 -55 -17t-49 -45v-279h-114v427h110v-71q36 37 73 58t81 21q51 0 77.5 -22t39.5 -60q36 40 77 61t86 21q66 0 98 -39t32 -104v-292h-114z" />
    <glyph glyph-name="n" unicode="n" horiz-adv-x="512" 
d="M349 0v264q0 41 -15.5 59t-49.5 18q-29 0 -59 -17t-54 -43v-281h-114v427h110v-71q38 38 77 58.5t81 20.5q71 0 104.5 -40t33.5 -103v-292h-114z" />
    <glyph glyph-name="o" unicode="o" horiz-adv-x="518" 
d="M370 214q0 62 -29.5 98t-80.5 36t-81 -36t-30 -98q0 -63 30 -99t81 -36t80.5 36t29.5 99zM482 214q0 -45 -15.5 -85.5t-44 -71t-70 -48t-92.5 -17.5q-52 0 -93.5 17.5t-70.5 48t-44.5 71t-15.5 85.5t15.5 85.5t44.5 70.5t70.5 47.5t93.5 17.5q51 0 92.5 -17.5t70 -47.5
t44 -70.5t15.5 -85.5z" />
    <glyph glyph-name="p" unicode="p" horiz-adv-x="534" 
d="M382 216q0 57 -29 93t-80 36q-33 0 -57.5 -11t-45.5 -34v-179q17 -20 43.5 -29.5t55.5 -9.5q48 0 80.5 35.5t32.5 98.5zM495 217q0 -46 -15.5 -87t-44 -71.5t-67.5 -48.5t-86 -18q-62 0 -112 28v-236h-113v643h109v-40q27 23 59.5 35.5t75.5 12.5q42 0 77.5 -16t61.5 -45
t40.5 -69t14.5 -88z" />
    <glyph glyph-name="q" unicode="q" horiz-adv-x="531" 
d="M364 295q-16 20 -41 35t-57 15q-51 0 -82.5 -37t-31.5 -98q0 -60 31 -93.5t88 -33.5q26 0 51.5 12t41.5 34v166zM364 -217v247q-23 -19 -52 -28.5t-68 -9.5q-43 0 -80.5 15.5t-65.5 43.5t-43.5 68t-15.5 89q0 48 17 89.5t45.5 72t66.5 48t79 17.5q42 0 70 -11.5t51 -29.5
v33h109v-644h-113z" />
    <glyph glyph-name="r" unicode="r" horiz-adv-x="334" 
d="M319 323q-50 5 -89 -4.5t-59 -37.5v-281h-114v427h110v-70q30 40 66 59t86 19v-112z" />
    <glyph glyph-name="s" unicode="s" horiz-adv-x="384" 
d="M357 128q0 -29 -12.5 -54t-34.5 -43t-52 -28.5t-66 -10.5q-49 0 -91 15t-78 41l44 81q29 -23 62.5 -36.5t60.5 -13.5q32 0 46.5 12t14.5 32q0 17 -15 27.5t-37.5 18.5t-49 17t-49 23t-37.5 35.5t-15 55.5q0 29 12 53.5t33.5 42.5t51.5 28.5t66 10.5q37 0 74 -11.5
t66 -28.5l-35 -83q-27 17 -55 27t-55 10q-29 0 -42.5 -11.5t-13.5 -28.5q0 -16 15.5 -25.5t38.5 -18t49.5 -17.5t49.5 -24t38.5 -38t15.5 -58z" />
    <glyph glyph-name="t" unicode="t" horiz-adv-x="339" 
d="M202 335v-196q0 -29 13 -40.5t38 -11.5q9 0 17.5 1.5t19.5 3.5l21 -88q-24 -5 -46 -8.5t-45 -3.5q-30 0 -54 8t-41.5 26t-26.5 47t-9 72v190h-81v15l81 81v69l113 71v-144h119v-92h-119z" />
    <glyph glyph-name="u" unicode="u" horiz-adv-x="511" 
d="M349 0v66q-32 -32 -72.5 -53t-82.5 -21q-71 0 -106 40t-35 103v292h114v-264q0 -40 17.5 -58t50.5 -18q29 0 57.5 15t52.5 41v284h114v-427h-110z" />
    <glyph glyph-name="v" unicode="v" horiz-adv-x="456" 
d="M236 -11h-20l-221 438h127l108 -254l108 254h123z" />
    <glyph glyph-name="w" unicode="w" horiz-adv-x="635" 
d="M471 -11h-20l-131 260l-132 -260h-20l-166 438h126l71 -240l110 241h20l113 -241l69 240h125z" />
    <glyph glyph-name="x" unicode="x" horiz-adv-x="458" 
d="M321 0l-92 142l-95 -142h-121l153 212l-153 215h125l93 -143l94 143h121l-151 -213l151 -214h-125z" />
    <glyph glyph-name="y" unicode="y" horiz-adv-x="461" 
d="M161 -216h-113l130 259l-180 384h126l109 -271l107 271h123z" />
    <glyph glyph-name="z" unicode="z" horiz-adv-x="424" 
d="M181 94h219v-94h-378l-5 15l223 318h-204v94h364l5 -15z" />
    <glyph glyph-name="braceleft" unicode="{" horiz-adv-x="311" 
d="M299 -223q-93 0 -141 47t-48 135v194q0 32 -12.5 48.5t-49.5 16.5h-23v81h23q37 0 49.5 16.5t12.5 48.5v193q0 88 48 135.5t141 47.5v-93q-47 0 -69.5 -21.5t-22.5 -78.5v-176q0 -24 -3.5 -41t-11.5 -29.5t-22.5 -22.5t-35.5 -20q21 -10 35.5 -19.5t22.5 -22.5t11.5 -30
t3.5 -41v-175q0 -57 22.5 -79t69.5 -22v-92z" />
    <glyph glyph-name="bar" unicode="|" horiz-adv-x="267" 
d="M90 -216v949h87v-949h-87z" />
    <glyph glyph-name="braceright" unicode="}" horiz-adv-x="311" 
d="M263 218q-37 0 -49.5 -16.5t-12.5 -48.5v-194q0 -88 -47.5 -135t-141.5 -47v92q47 0 70 22t23 79v175q0 24 3 41t11.5 30t22.5 22.5t35 19.5q-21 10 -35 20t-22.5 22.5t-11.5 29.5t-3 41v176q0 57 -23 78.5t-70 21.5v93q94 0 141.5 -47.5t47.5 -135.5v-193
q0 -32 12.5 -48.5t49.5 -16.5h23v-81h-23z" />
    <glyph glyph-name="asciitilde" unicode="~" 
d="M406 364q-22 -26 -50.5 -42.5t-56.5 -16.5q-20 0 -35 5t-31 14q-17 11 -30 15t-27 4q-36 0 -68 -38l-40 64q22 27 50.5 43t56.5 16q20 0 35 -5t31 -14q16 -10 28.5 -14t26.5 -4q35 0 67 38z" />
    <glyph glyph-name="uni00A0" unicode="&#xa0;" horiz-adv-x="225" 
 />
    <glyph glyph-name="exclamdown" unicode="&#xa1;" horiz-adv-x="262" 
d="M92 528h79l23 -528h-125zM66 676q0 27 19 46t46 19t46 -19t19 -46t-19 -46t-46 -19t-46 19t-19 46z" />
    <glyph glyph-name="cent" unicode="&#xa2;" horiz-adv-x="437" 
d="M145 213q0 -42 20 -72.5t54 -45.5l21 246q-42 -9 -68.5 -40.5t-26.5 -87.5zM211 -1q-39 8 -71.5 27.5t-55.5 47t-35.5 63t-12.5 75.5q0 46 16 85t44.5 68.5t67.5 47t84 21.5l6 75l68 -3l-7 -74q31 -5 57 -15.5t48 -24.5l-37 -81q-17 10 -36 17.5t-39 11.5l-22 -256
q26 1 51.5 9.5t49.5 22.5l33 -81q-65 -40 -141 -43l-6 -75l-68 3z" />
    <glyph glyph-name="sterling" unicode="&#xa3;" horiz-adv-x="474" 
d="M419 453q-27 19 -53 28t-55 9q-45 0 -65.5 -29t-20.5 -74v-54h120v-93h-120v-140h228v-100h-416v100h75v140h-73v7l73 74v73q0 42 13 78.5t38.5 63.5t63.5 42.5t89 15.5q38 0 73.5 -12t67.5 -31z" />
    <glyph glyph-name="yen" unicode="&#xa5;" horiz-adv-x="547" 
d="M369 335h112v-82h-148v-62h148v-79h-148v-112h-114v112h-152v79h152v62h-152v82h116l-158 248h130l123 -211l118 211h126z" />
    <glyph glyph-name="section" unicode="&#xa7;" horiz-adv-x="476" 
d="M321 281q0 21 -25 34.5t-80 29.5q-21 -3 -33 -14t-12 -26q0 -12 9 -20.5t24.5 -15.5t36.5 -13.5t45 -14.5q35 10 35 40zM427 292q0 -30 -16 -52.5t-42 -38.5q17 -13 26.5 -32t9.5 -45q0 -28 -12.5 -53t-35 -43t-54 -28.5t-69.5 -10.5q-48 0 -92.5 15t-79.5 40l43 82
q29 -23 66 -36.5t66 -13.5q61 0 61 42q0 18 -17 28t-43 18.5t-55.5 17t-55.5 22t-43 34.5t-17 55q0 31 16 54t43 38q-16 13 -26 30.5t-10 42.5q0 29 13 54t35.5 43t53.5 28.5t67 10.5q39 0 77.5 -12t66.5 -29l-35 -82q-26 16 -56 26.5t-57 10.5q-29 0 -44.5 -12t-15.5 -29
q0 -15 17 -25t43 -18t56 -17.5t56 -23.5t43 -36t17 -55z" />
    <glyph glyph-name="dieresis" unicode="&#xa8;" 
d="M207 557q0 -26 -18.5 -44.5t-44.5 -18.5t-44.5 18.5t-18.5 44.5t18.5 44.5t44.5 18.5t44.5 -18.5t18.5 -44.5zM389 557q0 -26 -18 -44.5t-44 -18.5t-44.5 18.5t-18.5 44.5t18.5 44.5t44.5 18.5t44 -18.5t18 -44.5z" />
    <glyph glyph-name="copyright" unicode="&#xa9;" horiz-adv-x="842" 
d="M560 212q-24 -15 -56 -25t-65 -10q-45 0 -82 14.5t-63.5 40t-41.5 60.5t-15 77q0 41 15 76.5t41.5 61t63.5 40t82 14.5q34 0 64 -9.5t54 -23.5l-24 -63q-21 12 -45.5 19.5t-48.5 7.5q-57 0 -89 -33.5t-32 -89.5q0 -55 32.5 -88.5t89.5 -33.5q24 0 49.5 7.5t47.5 20.5z
M725 366q0 66 -24 124.5t-65 102t-96.5 68.5t-118.5 25t-118.5 -25t-96.5 -68.5t-65 -102t-24 -124.5t24 -124t65 -101.5t96.5 -68.5t118.5 -25t118.5 25t96.5 68.5t65 101.5t24 124zM792 366q0 -78 -29 -147t-79.5 -120.5t-118 -81t-144.5 -29.5t-144.5 29.5t-118 81
t-79.5 120.5t-29 147t29 147t79.5 120.5t118 81.5t144.5 30t144.5 -30t118 -81.5t79.5 -120.5t29 -147z" />
    <glyph glyph-name="ordfeminine" unicode="&#xaa;" horiz-adv-x="370" 
d="M237 532q-14 10 -28 15t-33 5q-23 0 -38 -11t-15 -32t14 -32.5t39 -11.5q20 0 35 7.5t26 20.5v39zM239 410v31q-17 -18 -39.5 -27.5t-52.5 -9.5q-49 0 -82.5 26.5t-33.5 76.5q0 44 32 73t88 29q29 0 48 -5.5t38 -14.5v12q0 38 -20 54t-58 16q-19 0 -39.5 -4t-40.5 -9
l-10 70q23 8 52.5 12.5t53.5 4.5q158 0 158 -147v-188h-94z" />
    <glyph glyph-name="guillemotleft" unicode="&#xab;" horiz-adv-x="472" 
d="M153 9l-105 164l105 163h106l-109 -163l109 -164h-106zM326 9l-105 164l105 163h106l-109 -163l109 -164h-106z" />
    <glyph glyph-name="registered" unicode="&#xae;" horiz-adv-x="386" 
d="M193 398q-35 0 -66 13.5t-54 37t-36.5 55t-13.5 67.5t13.5 68t36.5 56t54 37.5t66 13.5q36 0 67 -13.5t54 -37.5t36.5 -56t13.5 -68q0 -35 -13.5 -66.5t-36.5 -55t-54 -37.5t-67 -14zM193 427q29 0 54 11.5t44 31t29.5 46t10.5 55.5q0 30 -10.5 56.5t-29.5 46.5t-44 31.5
t-54 11.5q-28 0 -53.5 -11.5t-44 -31.5t-29.5 -46.5t-11 -56.5t11 -56t29.5 -45.5t44 -31t53.5 -11.5zM172 576q5 -1 8 -1h6q33 0 33 28q0 24 -31 24q-11 0 -16 -1v-50zM135 657q21 3 50 3q38 0 56 -16t18 -40q0 -16 -8 -29.5t-23 -20.5l42 -67h-43l-33 58q-4 -1 -9 -1h-5
t-8 1v-58h-37v170z" />
    <glyph glyph-name="macron" unicode="&#xaf;" 
d="M92 504v86h287v-86h-287z" />
    <glyph glyph-name="degree" unicode="&#xb0;" horiz-adv-x="410" 
d="M252 582q0 23 -13 38t-34 15q-20 0 -33 -15t-13 -38q0 -24 13 -38.5t33 -14.5q21 0 34 14.5t13 38.5zM317 581q0 -22 -8 -42t-23 -34t-35.5 -22.5t-45.5 -8.5t-45.5 8.5t-35.5 22.5t-23 34t-8 42q0 23 8 42.5t23 34.5t35.5 23.5t45.5 8.5t45.5 -8.5t35.5 -23.5t23 -34.5
t8 -42.5z" />
    <glyph glyph-name="acute" unicode="&#xb4;" 
d="M148 479l-29 55l182 134l49 -100z" />
    <glyph glyph-name="paragraph" unicode="&#xb6;" horiz-adv-x="625" 
d="M313 488q-66 -9 -99 -42.5t-33 -83.5q0 -28 10.5 -49.5t28.5 -35.5t42 -20.5t51 -5.5v237zM464 0v486q-14 2 -30 3t-35 2v-491h-86v150q-51 -3 -97 10t-81.5 39t-56.5 65.5t-21 90.5q0 52 23 95.5t65.5 75.5t102.5 50t134 18q45 0 85.5 -3.5t82.5 -8.5v-582h-86z" />
    <glyph glyph-name="periodcentered" unicode="&#xb7;" horiz-adv-x="287" 
d="M79 366q0 27 19 46t46 19t46 -19t19 -46t-19 -46t-46 -19t-46 19t-19 46z" />
    <glyph glyph-name="cedilla" unicode="&#xb8;" 
d="M357 -152q0 -20 -7 -38.5t-21.5 -32.5t-35.5 -22.5t-50 -8.5q-56 0 -120 38l28 61q26 -17 49 -25t46 -8q36 0 36 34q0 16 -20.5 29.5t-75.5 15.5l-4 9l31 117l50 -13l-13 -55q60 -14 83.5 -41t23.5 -60z" />
    <glyph glyph-name="ordmasculine" unicode="&#xba;" horiz-adv-x="388" 
d="M272 575q0 45 -21 70.5t-57 25.5q-37 0 -57.5 -25.5t-20.5 -70.5t20.5 -71t57.5 -26q36 0 57 26t21 71zM368 575q0 -35 -12 -66t-34.5 -54.5t-54.5 -37t-73 -13.5q-40 0 -72.5 13.5t-55 37t-34.5 54.5t-12 66t12 66t34.5 54t55 36.5t72.5 13.5q41 0 73 -13.5t54.5 -36.5
t34.5 -54t12 -66z" />
    <glyph glyph-name="guillemotright" unicode="&#xbb;" horiz-adv-x="472" 
d="M147 9h-107l110 164l-110 163h107l105 -163zM320 9h-107l110 164l-110 163h107l105 -163z" />
    <glyph glyph-name="questiondown" unicode="&#xbf;" horiz-adv-x="394" 
d="M17 166q0 37 13.5 65t34 51t44 42.5t44 40t34 43t13.5 51.5v57h101v-72q0 -34 -11.5 -60.5t-29 -48.5t-37.5 -40.5t-37.5 -37t-29 -37.5t-11.5 -42q0 -39 26.5 -59t74.5 -20q27 0 52 5.5t51 15.5l22 -100q-35 -12 -70.5 -19.5t-75.5 -7.5q-52 0 -91.5 14t-65 37.5
t-38.5 55t-13 66.5zM186 676q0 27 19 46t47 19q27 0 46 -19t19 -46t-19 -46t-46 -19q-28 0 -47 19t-19 46z" />
    <glyph glyph-name="Agrave" unicode="&#xc0;" horiz-adv-x="687" 
d="M366 791l-204 91l53 97l184 -135zM342 512l-104 -245h208zM558 0l-71 168h-290l-71 -168h-129l338 743h18l337 -743h-132z" />
    <glyph glyph-name="Aacute" unicode="&#xc1;" horiz-adv-x="687" 
d="M312 791l-29 55l182 134l49 -100zM342 512l-104 -245h208zM558 0l-71 168h-290l-71 -168h-129l338 743h18l337 -743h-132z" />
    <glyph glyph-name="Acircumflex" unicode="&#xc2;" horiz-adv-x="687" 
d="M405 805l-65 84l-64 -84h-101l148 177h45l144 -177h-107zM342 512l-104 -245h208zM558 0l-71 168h-290l-71 -168h-129l338 743h18l337 -743h-132z" />
    <glyph glyph-name="Atilde" unicode="&#xc3;" horiz-adv-x="687" 
d="M516 866q-22 -26 -50.5 -42.5t-56.5 -16.5q-20 0 -35 5t-31 14q-17 11 -30 15t-27 4q-36 0 -68 -38l-40 64q22 27 50.5 43t56.5 16q20 0 35 -5t31 -14q16 -10 28.5 -14t26.5 -4q35 0 67 38zM342 512l-104 -245h208zM558 0l-71 168h-290l-71 -168h-129l338 743h18
l337 -743h-132z" />
    <glyph glyph-name="Adieresis" unicode="&#xc4;" horiz-adv-x="687" 
d="M315 869q0 -26 -18.5 -44.5t-44.5 -18.5t-44.5 18.5t-18.5 44.5t18.5 44.5t44.5 18.5t44.5 -18.5t18.5 -44.5zM497 869q0 -26 -18 -44.5t-44 -18.5t-44.5 18.5t-18.5 44.5t18.5 44.5t44.5 18.5t44 -18.5t18 -44.5zM342 512l-104 -245h208zM558 0l-71 168h-290l-71 -168
h-129l338 743h18l337 -743h-132z" />
    <glyph glyph-name="Aring" unicode="&#xc5;" horiz-adv-x="687" 
d="M394 811q0 25 -14.5 41t-36.5 16q-21 0 -35 -15.5t-14 -41.5t14 -41.5t35 -15.5q22 0 36.5 15.5t14.5 41.5zM342 512l-104 -245h208zM461 811q0 -41 -24 -72t-66 -39l319 -700h-132l-71 168h-290l-71 -168h-129l318 700q-42 9 -65.5 40t-23.5 71q0 23 8.5 43.5t23.5 36.5
t36.5 25t48.5 9t49 -9t37 -25t23.5 -36.5t8.5 -43.5z" />
    <glyph glyph-name="AE" unicode="&#xc6;" horiz-adv-x="1017" 
d="M504 549l-178 -266h178v266zM504 0v180h-245l-122 -180h-143l510 733h446v-114h-321v-192h290v-110h-290v-203h321v-114h-446z" />
    <glyph glyph-name="Ccedilla" unicode="&#xc7;" horiz-adv-x="719" 
d="M559 -147q0 -20 -7 -38.5t-21.5 -32.5t-35.5 -22.5t-50 -8.5q-56 0 -120 38l28 61q26 -17 49 -25t46 -8q36 0 36 34q0 16 -20.5 29.5t-75.5 15.5l-4 9l22 85q-78 7 -142.5 38t-111 80.5t-72 115.5t-25.5 142q0 81 29.5 150.5t82 120.5t125 79.5t158.5 28.5q69 0 129 -19
t107 -48l-43 -106q-44 25 -95 40.5t-100 15.5q-60 0 -108 -19t-81.5 -53.5t-51.5 -83t-18 -106.5t18.5 -106t52.5 -82.5t82.5 -53.5t108.5 -19q49 0 102 16t98 42l38 -106q-45 -29 -104 -48t-125 -21l-8 -34q60 -14 83.5 -41t23.5 -60z" />
    <glyph glyph-name="Egrave" unicode="&#xc8;" horiz-adv-x="594" 
d="M328 791l-204 91l53 97l184 -135zM80 0v733h447v-114h-322v-192h291v-110h-291v-203h322v-114h-447z" />
    <glyph glyph-name="Eacute" unicode="&#xc9;" horiz-adv-x="594" 
d="M80 0v733h447v-114h-322v-192h291v-110h-291v-203h322v-114h-447zM273 791l-29 55l182 134l49 -100z" />
    <glyph glyph-name="Ecircumflex" unicode="&#xca;" horiz-adv-x="594" 
d="M80 0v733h447v-114h-322v-192h291v-110h-291v-203h322v-114h-447zM366 805l-65 84l-64 -84h-101l148 177h45l144 -177h-107z" />
    <glyph glyph-name="Edieresis" unicode="&#xcb;" horiz-adv-x="594" 
d="M80 0v733h447v-114h-322v-192h291v-110h-291v-203h322v-114h-447zM276 869q0 -26 -18.5 -44.5t-44.5 -18.5t-44.5 18.5t-18.5 44.5t18.5 44.5t44.5 18.5t44.5 -18.5t18.5 -44.5zM458 869q0 -26 -18 -44.5t-44 -18.5t-44.5 18.5t-18.5 44.5t18.5 44.5t44.5 18.5t44 -18.5
t18 -44.5z" />
    <glyph glyph-name="Igrave" unicode="&#xcc;" horiz-adv-x="295" 
d="M171 791l-204 91l53 97l184 -135zM85 0v733h125v-733h-125z" />
    <glyph glyph-name="Iacute" unicode="&#xcd;" horiz-adv-x="295" 
d="M116 799l-29 55l182 134l49 -100zM85 0v733h125v-733h-125z" />
    <glyph glyph-name="Icircumflex" unicode="&#xce;" horiz-adv-x="295" 
d="M209 805l-65 84l-64 -84h-101l148 177h45l144 -177h-107zM85 0v733h125v-733h-125z" />
    <glyph glyph-name="Idieresis" unicode="&#xcf;" horiz-adv-x="295" 
d="M119 869q0 -26 -18.5 -44.5t-44.5 -18.5t-44.5 18.5t-18.5 44.5t18.5 44.5t44.5 18.5t44.5 -18.5t18.5 -44.5zM301 869q0 -26 -18 -44.5t-44 -18.5t-44.5 18.5t-18.5 44.5t18.5 44.5t44.5 18.5t44 -18.5t18 -44.5zM85 0v733h125v-733h-125z" />
    <glyph glyph-name="Eth" unicode="&#xd0;" horiz-adv-x="782" 
d="M603 373q0 57 -18 104t-54 80.5t-89 52t-122 18.5q-56 0 -95 -6v-197h112v-104h-112v-210q23 -4 46.5 -5t58.5 -1q71 0 122 20t85 56t50 85t16 107zM737 373q0 -77 -26 -146t-78.5 -120.5t-132.5 -82t-189 -30.5q-30 0 -56.5 1t-51.5 2.5t-50 3.5t-53 5v315h-81v104h81
v301q54 6 101.5 9t102.5 3q109 0 190 -29t135 -79t81 -116.5t27 -140.5z" />
    <glyph glyph-name="Ntilde" unicode="&#xd1;" horiz-adv-x="758" 
d="M551 859q-22 -26 -50.5 -42.5t-56.5 -16.5q-20 0 -35 5t-31 14q-17 11 -30 15t-27 4q-36 0 -68 -38l-40 64q22 27 50.5 43t56.5 16q20 0 35 -5t31 -14q16 -10 28.5 -14t26.5 -4q35 0 67 38zM664 -14l-459 484v-470h-125v743l20 4l453 -477v463h125v-744z" />
    <glyph glyph-name="Ograve" unicode="&#xd2;" horiz-adv-x="851" 
d="M448 791l-204 91l53 97l184 -135zM662 366q0 57 -17.5 106t-48.5 85t-74.5 56t-95.5 20t-96 -20t-75 -56t-48.5 -85t-17.5 -106t17.5 -106t48.5 -84.5t75 -56t96 -20.5t95.5 20.5t74.5 56t48.5 84.5t17.5 106zM796 366q0 -81 -28.5 -150.5t-79 -120t-118.5 -79
t-148 -28.5q-79 0 -146.5 28.5t-116.5 79t-76.5 120t-27.5 150.5q0 82 28.5 151.5t79 120t119 79t147.5 28.5q80 0 147 -28.5t116 -79t76.5 -120t27.5 -151.5z" />
    <glyph glyph-name="Oacute" unicode="&#xd3;" horiz-adv-x="851" 
d="M662 366q0 57 -17.5 106t-48.5 85t-74.5 56t-95.5 20t-96 -20t-75 -56t-48.5 -85t-17.5 -106t17.5 -106t48.5 -84.5t75 -56t96 -20.5t95.5 20.5t74.5 56t48.5 84.5t17.5 106zM796 366q0 -81 -28.5 -150.5t-79 -120t-118.5 -79t-148 -28.5q-79 0 -146.5 28.5t-116.5 79
t-76.5 120t-27.5 150.5q0 82 28.5 151.5t79 120t119 79t147.5 28.5q80 0 147 -28.5t116 -79t76.5 -120t27.5 -151.5zM394 791l-29 55l182 134l49 -100z" />
    <glyph glyph-name="Ocircumflex" unicode="&#xd4;" horiz-adv-x="851" 
d="M662 366q0 57 -17.5 106t-48.5 85t-74.5 56t-95.5 20t-96 -20t-75 -56t-48.5 -85t-17.5 -106t17.5 -106t48.5 -84.5t75 -56t96 -20.5t95.5 20.5t74.5 56t48.5 84.5t17.5 106zM796 366q0 -81 -28.5 -150.5t-79 -120t-118.5 -79t-148 -28.5q-79 0 -146.5 28.5t-116.5 79
t-76.5 120t-27.5 150.5q0 82 28.5 151.5t79 120t119 79t147.5 28.5q80 0 147 -28.5t116 -79t76.5 -120t27.5 -151.5zM487 805l-65 84l-64 -84h-101l148 177h45l144 -177h-107z" />
    <glyph glyph-name="Otilde" unicode="&#xd5;" horiz-adv-x="851" 
d="M598 866q-22 -26 -50.5 -42.5t-56.5 -16.5q-20 0 -35 5t-31 14q-17 11 -30 15t-27 4q-36 0 -68 -38l-40 64q22 27 50.5 43t56.5 16q20 0 35 -5t31 -14q16 -10 28.5 -14t26.5 -4q35 0 67 38zM662 366q0 57 -17.5 106t-48.5 85t-74.5 56t-95.5 20t-96 -20t-75 -56
t-48.5 -85t-17.5 -106t17.5 -106t48.5 -84.5t75 -56t96 -20.5t95.5 20.5t74.5 56t48.5 84.5t17.5 106zM796 366q0 -81 -28.5 -150.5t-79 -120t-118.5 -79t-148 -28.5q-79 0 -146.5 28.5t-116.5 79t-76.5 120t-27.5 150.5q0 82 28.5 151.5t79 120t119 79t147.5 28.5
q80 0 147 -28.5t116 -79t76.5 -120t27.5 -151.5z" />
    <glyph glyph-name="Odieresis" unicode="&#xd6;" horiz-adv-x="851" 
d="M662 366q0 57 -17.5 106t-48.5 85t-74.5 56t-95.5 20t-96 -20t-75 -56t-48.5 -85t-17.5 -106t17.5 -106t48.5 -84.5t75 -56t96 -20.5t95.5 20.5t74.5 56t48.5 84.5t17.5 106zM796 366q0 -81 -28.5 -150.5t-79 -120t-118.5 -79t-148 -28.5q-79 0 -146.5 28.5t-116.5 79
t-76.5 120t-27.5 150.5q0 82 28.5 151.5t79 120t119 79t147.5 28.5q80 0 147 -28.5t116 -79t76.5 -120t27.5 -151.5zM397 869q0 -26 -18.5 -44.5t-44.5 -18.5t-44.5 18.5t-18.5 44.5t18.5 44.5t44.5 18.5t44.5 -18.5t18.5 -44.5zM579 869q0 -26 -18 -44.5t-44 -18.5
t-44.5 18.5t-18.5 44.5t18.5 44.5t44.5 18.5t44 -18.5t18 -44.5z" />
    <glyph glyph-name="multiply" unicode="&#xd7;" horiz-adv-x="449" 
d="M122 454l102 -105l103 105l61 -61l-104 -105l104 -105l-61 -60l-103 104l-102 -104l-60 60l103 105l-103 105z" />
    <glyph glyph-name="Oslash" unicode="&#xd8;" horiz-adv-x="851" 
d="M572 580q-29 26 -66 39.5t-80 13.5q-52 0 -96 -20t-75 -56t-48.5 -85t-17.5 -106q0 -38 8.5 -72t24.5 -63zM662 366q0 38 -8.5 72.5t-24.5 63.5l-175 -175q-33 -33 -64.5 -64t-56 -55.5t-39.5 -40l-15 -15.5q29 -25 66 -39t81 -14q52 0 95.5 20.5t74.5 56t48.5 84.5
t17.5 106zM796 366q0 -81 -28.5 -150.5t-79 -120t-118.5 -79t-148 -28.5q-68 0 -126.5 20.5t-105.5 58.5q-6 -7 -18.5 -19t-24.5 -24l-30 -30l-68 69l76 74q-33 48 -51.5 105.5t-18.5 123.5q0 82 28.5 151.5t79 120t119 79t147.5 28.5q68 0 126.5 -21t105.5 -59q0 1 11.5 12
t25.5 25l36 36l68 -67l-76 -75q34 -48 52 -105.5t18 -124.5z" />
    <glyph glyph-name="Ugrave" unicode="&#xd9;" horiz-adv-x="729" 
d="M388 784l-204 91l53 97l184 -135zM658 281q0 -70 -21 -124.5t-59 -92t-92.5 -57t-122.5 -19.5q-138 0 -214.5 75t-76.5 218v452h125v-443q0 -95 44 -141.5t124 -46.5q79 0 123.5 47t44.5 141v443h125v-452z" />
    <glyph glyph-name="Uacute" unicode="&#xda;" horiz-adv-x="729" 
d="M658 281q0 -70 -21 -124.5t-59 -92t-92.5 -57t-122.5 -19.5q-138 0 -214.5 75t-76.5 218v452h125v-443q0 -95 44 -141.5t124 -46.5q79 0 123.5 47t44.5 141v443h125v-452zM334 784l-29 55l182 134l49 -100z" />
    <glyph glyph-name="Ucircumflex" unicode="&#xdb;" horiz-adv-x="729" 
d="M658 281q0 -70 -21 -124.5t-59 -92t-92.5 -57t-122.5 -19.5q-138 0 -214.5 75t-76.5 218v452h125v-443q0 -95 44 -141.5t124 -46.5q79 0 123.5 47t44.5 141v443h125v-452zM427 798l-65 84l-64 -84h-101l148 177h45l144 -177h-107z" />
    <glyph glyph-name="Udieresis" unicode="&#xdc;" horiz-adv-x="729" 
d="M658 281q0 -70 -21 -124.5t-59 -92t-92.5 -57t-122.5 -19.5q-138 0 -214.5 75t-76.5 218v452h125v-443q0 -95 44 -141.5t124 -46.5q79 0 123.5 47t44.5 141v443h125v-452zM337 862q0 -26 -18.5 -44.5t-44.5 -18.5t-44.5 18.5t-18.5 44.5t18.5 44.5t44.5 18.5t44.5 -18.5
t18.5 -44.5zM519 862q0 -26 -18 -44.5t-44 -18.5t-44.5 18.5t-18.5 44.5t18.5 44.5t44.5 18.5t44 -18.5t18 -44.5z" />
    <glyph glyph-name="Yacute" unicode="&#xdd;" horiz-adv-x="671" 
d="M304 784l-29 55l182 134l49 -100zM398 308v-308h-125v309l-258 424h143l180 -310l178 310h140z" />
    <glyph glyph-name="Thorn" unicode="&#xde;" horiz-adv-x="599" 
d="M440 366q0 27 -9.5 51.5t-28.5 43.5t-48 30t-67 11q-43 0 -82 -6v-268q19 -2 36 -3t34 -1q85 0 125 39.5t40 102.5zM570 370q0 -56 -19.5 -103t-56.5 -81t-91.5 -53t-124.5 -19q-18 0 -36.5 1t-36.5 2v-117h-125v733h125v-117q11 2 30.5 2h30.5q75 0 132 -19.5t95.5 -53
t57.5 -79t19 -96.5z" />
    <glyph glyph-name="germandbls" unicode="&#xdf;" horiz-adv-x="541" 
d="M394 223q65 -18 91 -56t26 -87q0 -44 -18 -76.5t-48 -54.5t-70 -32.5t-84 -10.5q-14 0 -29.5 1.5t-30.5 3.5l11 92q13 -2 25 -3t23 -1q54 0 81.5 20.5t27.5 58.5q0 30 -23 51t-77 21h-17t-19 -2l-7 14l113 171h-190v-333h-113v531q0 99 45 154t139 55q20 0 36.5 -2
t33.5 -7l-13 -96q-9 2 -20 3t-22 1q-44 0 -65 -23t-21 -85v-104h347l5 -12z" />
    <glyph glyph-name="agrave" unicode="&#xe0;" horiz-adv-x="459" 
d="M260 479l-204 91l53 97l184 -135zM300 160q-23 15 -41.5 22t-46.5 7q-32 0 -53.5 -16t-21.5 -45t20 -45.5t57 -16.5q29 0 50 11t36 30v53zM304 0v41q-24 -23 -53.5 -36t-70.5 -13q-31 0 -58.5 9t-47.5 26.5t-32 42.5t-12 57q0 29 11 53t31.5 42t49 28t63.5 10q39 0 65 -8
t50 -19v18q0 50 -26 72.5t-77 22.5q-26 0 -53.5 -5t-52.5 -13l-13 85q29 9 67 15.5t70 6.5q101 0 149 -47t48 -141v-247h-108z" />
    <glyph glyph-name="aacute" unicode="&#xe1;" horiz-adv-x="459" 
d="M205 479l-29 55l182 134l49 -100zM300 160q-23 15 -41.5 22t-46.5 7q-32 0 -53.5 -16t-21.5 -45t20 -45.5t57 -16.5q29 0 50 11t36 30v53zM304 0v41q-24 -23 -53.5 -36t-70.5 -13q-31 0 -58.5 9t-47.5 26.5t-32 42.5t-12 57q0 29 11 53t31.5 42t49 28t63.5 10q39 0 65 -8
t50 -19v18q0 50 -26 72.5t-77 22.5q-26 0 -53.5 -5t-52.5 -13l-13 85q29 9 67 15.5t70 6.5q101 0 149 -47t48 -141v-247h-108z" />
    <glyph glyph-name="acircumflex" unicode="&#xe2;" horiz-adv-x="459" 
d="M298 493l-65 84l-64 -84h-101l148 177h45l144 -177h-107zM300 160q-23 15 -41.5 22t-46.5 7q-32 0 -53.5 -16t-21.5 -45t20 -45.5t57 -16.5q29 0 50 11t36 30v53zM304 0v41q-24 -23 -53.5 -36t-70.5 -13q-31 0 -58.5 9t-47.5 26.5t-32 42.5t-12 57q0 29 11 53t31.5 42
t49 28t63.5 10q39 0 65 -8t50 -19v18q0 50 -26 72.5t-77 22.5q-26 0 -53.5 -5t-52.5 -13l-13 85q29 9 67 15.5t70 6.5q101 0 149 -47t48 -141v-247h-108z" />
    <glyph glyph-name="atilde" unicode="&#xe3;" horiz-adv-x="459" 
d="M409 554q-22 -26 -50.5 -42.5t-56.5 -16.5q-20 0 -35 5t-31 14q-17 11 -30 15t-27 4q-36 0 -68 -38l-40 64q22 27 50.5 43t56.5 16q20 0 35 -5t31 -14q16 -10 28.5 -14t26.5 -4q35 0 67 38zM300 160q-23 15 -41.5 22t-46.5 7q-32 0 -53.5 -16t-21.5 -45t20 -45.5
t57 -16.5q29 0 50 11t36 30v53zM304 0v41q-24 -23 -53.5 -36t-70.5 -13q-31 0 -58.5 9t-47.5 26.5t-32 42.5t-12 57q0 29 11 53t31.5 42t49 28t63.5 10q39 0 65 -8t50 -19v18q0 50 -26 72.5t-77 22.5q-26 0 -53.5 -5t-52.5 -13l-13 85q29 9 67 15.5t70 6.5q101 0 149 -47
t48 -141v-247h-108z" />
    <glyph glyph-name="adieresis" unicode="&#xe4;" horiz-adv-x="459" 
d="M208 557q0 -26 -18.5 -44.5t-44.5 -18.5t-44.5 18.5t-18.5 44.5t18.5 44.5t44.5 18.5t44.5 -18.5t18.5 -44.5zM390 557q0 -26 -18 -44.5t-44 -18.5t-44.5 18.5t-18.5 44.5t18.5 44.5t44.5 18.5t44 -18.5t18 -44.5zM300 160q-23 15 -41.5 22t-46.5 7q-32 0 -53.5 -16
t-21.5 -45t20 -45.5t57 -16.5q29 0 50 11t36 30v53zM304 0v41q-24 -23 -53.5 -36t-70.5 -13q-31 0 -58.5 9t-47.5 26.5t-32 42.5t-12 57q0 29 11 53t31.5 42t49 28t63.5 10q39 0 65 -8t50 -19v18q0 50 -26 72.5t-77 22.5q-26 0 -53.5 -5t-52.5 -13l-13 85q29 9 67 15.5
t70 6.5q101 0 149 -47t48 -141v-247h-108z" />
    <glyph glyph-name="aring" unicode="&#xe5;" horiz-adv-x="459" 
d="M286 601q0 25 -14.5 41t-35.5 16t-35.5 -15.5t-14.5 -41.5t14.5 -41.5t35.5 -15.5t35.5 15.5t14.5 41.5zM354 601q0 -23 -8.5 -44t-24 -36.5t-37 -24.5t-48.5 -9t-48.5 9t-37 24.5t-24 36.5t-8.5 44t8.5 43.5t24 36.5t37 25t48.5 9t48.5 -9t37 -25t24 -36.5t8.5 -43.5z
M300 160q-23 15 -41.5 22t-46.5 7q-32 0 -53.5 -16t-21.5 -45t20 -45.5t57 -16.5q29 0 50 11t36 30v53zM304 0v41q-24 -23 -53.5 -36t-70.5 -13q-31 0 -58.5 9t-47.5 26.5t-32 42.5t-12 57q0 29 11 53t31.5 42t49 28t63.5 10q39 0 65 -8t50 -19v18q0 50 -26 72.5t-77 22.5
q-26 0 -53.5 -5t-52.5 -13l-13 85q29 9 67 15.5t70 6.5q101 0 149 -47t48 -141v-247h-108z" />
    <glyph glyph-name="ae" unicode="&#xe6;" horiz-adv-x="740" 
d="M314 145q-17 21 -43.5 34t-60.5 13q-32 0 -52.5 -16.5t-20.5 -45.5t20.5 -45t56.5 -16q29 0 57.5 17.5t42.5 58.5zM610 250q-3 44 -27.5 70t-68.5 26q-42 0 -67.5 -25t-31.5 -71h195zM301 251q0 50 -26 72.5t-78 22.5q-26 0 -53 -5t-53 -13l-13 85q29 9 66 15.5t69 6.5
q59 0 97 -16.5t60 -51.5q26 31 63.5 49.5t85.5 18.5q47 0 83 -16t60 -43.5t36.5 -65t12.5 -80.5q0 -11 -0.5 -25.5t-2.5 -25.5h-296q7 -45 37 -71.5t97 -26.5q26 0 58.5 6.5t64.5 16.5l14 -88q-38 -11 -76 -17.5t-70 -6.5q-63 0 -108.5 22.5t-73.5 59.5q-32 -39 -74.5 -60.5
t-93.5 -21.5q-33 0 -62 9t-50 26.5t-33 42.5t-12 57q0 29 11 53t31 42t48.5 28t63.5 10q39 0 66 -8t51 -20v19z" />
    <glyph glyph-name="ccedilla" unicode="&#xe7;" horiz-adv-x="432" 
d="M365 -147q0 -20 -7 -38.5t-21.5 -32.5t-35.5 -22.5t-50 -8.5q-56 0 -120 38l28 61q26 -17 49 -25t46 -8q36 0 36 34q0 16 -20.5 29.5t-75.5 15.5l-4 9l24 94q-42 9 -75.5 28.5t-56 48t-34.5 63t-12 73.5q0 45 16.5 85.5t47.5 71t75.5 48.5t101.5 18q39 0 76.5 -12.5
t66.5 -30.5l-37 -79q-25 14 -51.5 22t-56.5 8q-27 0 -50 -8t-40 -24.5t-27 -41t-10 -56.5q0 -30 10.5 -53.5t29 -40t42.5 -25.5t51 -9q29 0 56.5 8t50.5 22l32 -80q-29 -18 -66.5 -30.5t-76.5 -12.5h-10l-9 -38q60 -14 83.5 -41t23.5 -60z" />
    <glyph glyph-name="egrave" unicode="&#xe8;" horiz-adv-x="476" 
d="M274 479l-204 91l53 97l184 -135zM346 250q-4 44 -28.5 70t-67.5 26q-42 0 -68 -25t-32 -71h196zM447 230q0 -11 -0.5 -25.5t-2.5 -25.5h-296q7 -45 37 -71.5t96 -26.5q27 0 59.5 6.5t64.5 16.5l14 -88q-39 -11 -78 -17.5t-71 -6.5q-60 0 -104 17.5t-73 47.5t-43 70
t-14 85q0 43 14 83.5t41.5 71.5t68 49.5t92.5 18.5q48 0 84.5 -16t61 -43.5t37 -65t12.5 -80.5z" />
    <glyph glyph-name="eacute" unicode="&#xe9;" horiz-adv-x="476" 
d="M346 250q-4 44 -28.5 70t-67.5 26q-42 0 -68 -25t-32 -71h196zM447 230q0 -11 -0.5 -25.5t-2.5 -25.5h-296q7 -45 37 -71.5t96 -26.5q27 0 59.5 6.5t64.5 16.5l14 -88q-39 -11 -78 -17.5t-71 -6.5q-60 0 -104 17.5t-73 47.5t-43 70t-14 85q0 43 14 83.5t41.5 71.5
t68 49.5t92.5 18.5q48 0 84.5 -16t61 -43.5t37 -65t12.5 -80.5zM219 479l-29 55l182 134l49 -100z" />
    <glyph glyph-name="ecircumflex" unicode="&#xea;" horiz-adv-x="476" 
d="M346 250q-4 44 -28.5 70t-67.5 26q-42 0 -68 -25t-32 -71h196zM447 230q0 -11 -0.5 -25.5t-2.5 -25.5h-296q7 -45 37 -71.5t96 -26.5q27 0 59.5 6.5t64.5 16.5l14 -88q-39 -11 -78 -17.5t-71 -6.5q-60 0 -104 17.5t-73 47.5t-43 70t-14 85q0 43 14 83.5t41.5 71.5
t68 49.5t92.5 18.5q48 0 84.5 -16t61 -43.5t37 -65t12.5 -80.5zM312 493l-65 84l-64 -84h-101l148 177h45l144 -177h-107z" />
    <glyph glyph-name="edieresis" unicode="&#xeb;" horiz-adv-x="476" 
d="M346 250q-4 44 -28.5 70t-67.5 26q-42 0 -68 -25t-32 -71h196zM447 230q0 -11 -0.5 -25.5t-2.5 -25.5h-296q7 -45 37 -71.5t96 -26.5q27 0 59.5 6.5t64.5 16.5l14 -88q-39 -11 -78 -17.5t-71 -6.5q-60 0 -104 17.5t-73 47.5t-43 70t-14 85q0 43 14 83.5t41.5 71.5
t68 49.5t92.5 18.5q48 0 84.5 -16t61 -43.5t37 -65t12.5 -80.5zM222 557q0 -26 -18.5 -44.5t-44.5 -18.5t-44.5 18.5t-18.5 44.5t18.5 44.5t44.5 18.5t44.5 -18.5t18.5 -44.5zM404 557q0 -26 -18 -44.5t-44 -18.5t-44.5 18.5t-18.5 44.5t18.5 44.5t44.5 18.5t44 -18.5
t18 -44.5z" />
    <glyph glyph-name="igrave" unicode="&#xec;" horiz-adv-x="240" 
d="M144 479l-204 91l53 97l184 -135zM64 0v427h114v-427h-114z" />
    <glyph glyph-name="iacute" unicode="&#xed;" horiz-adv-x="240" 
d="M64 0v427h114v-427h-114zM89 479l-29 55l182 134l49 -100z" />
    <glyph glyph-name="icircumflex" unicode="&#xee;" horiz-adv-x="240" 
d="M64 0v427h114v-427h-114zM182 493l-65 84l-64 -84h-101l148 177h45l144 -177h-107z" />
    <glyph glyph-name="idieresis" unicode="&#xef;" horiz-adv-x="240" 
d="M64 0v427h114v-427h-114zM92 557q0 -26 -18.5 -44.5t-44.5 -18.5t-44.5 18.5t-18.5 44.5t18.5 44.5t44.5 18.5t44.5 -18.5t18.5 -44.5zM274 557q0 -26 -18 -44.5t-44 -18.5t-44.5 18.5t-18.5 44.5t18.5 44.5t44.5 18.5t44 -18.5t18 -44.5z" />
    <glyph glyph-name="eth" unicode="&#xf0;" horiz-adv-x="524" 
d="M377 215q0 60 -32 97t-84 37q-49 0 -79.5 -34.5t-30.5 -95.5q0 -29 7.5 -54.5t22 -45t35.5 -30.5t48 -11q54 0 83.5 38.5t29.5 98.5zM109 545l63 55q-24 16 -48.5 29t-49.5 23l44 88q33 -15 65.5 -32.5t64.5 -39.5l67 59l51 -62l-54 -46q37 -33 68.5 -72.5t55 -86.5
t36.5 -101t13 -117q0 -56 -15.5 -102.5t-44.5 -79.5t-70.5 -51.5t-92.5 -18.5q-56 0 -98 19t-69.5 50.5t-41.5 73.5t-14 87q0 44 13.5 83.5t38.5 68.5t61.5 46t82.5 17q37 0 68 -12t53 -33q-17 44 -48 85.5t-73 77.5l-78 -67z" />
    <glyph glyph-name="ntilde" unicode="&#xf1;" horiz-adv-x="512" 
d="M432 554q-22 -26 -50.5 -42.5t-56.5 -16.5q-20 0 -35 5t-31 14q-17 11 -30 15t-27 4q-36 0 -68 -38l-40 64q22 27 50.5 43t56.5 16q20 0 35 -5t31 -14q16 -10 28.5 -14t26.5 -4q35 0 67 38zM349 0v264q0 41 -15.5 59t-49.5 18q-29 0 -59 -17t-54 -43v-281h-114v427h110
v-71q38 38 77 58.5t81 20.5q71 0 104.5 -40t33.5 -103v-292h-114z" />
    <glyph glyph-name="ograve" unicode="&#xf2;" horiz-adv-x="523" 
d="M285 479l-204 91l53 97l184 -135zM370 214q0 62 -29.5 98t-80.5 36t-81 -36t-30 -98q0 -63 30 -99t81 -36t80.5 36t29.5 99zM482 214q0 -45 -15.5 -85.5t-44 -71t-70 -48t-92.5 -17.5q-52 0 -93.5 17.5t-70.5 48t-44.5 71t-15.5 85.5t15.5 85.5t44.5 70.5t70.5 47.5
t93.5 17.5q51 0 92.5 -17.5t70 -47.5t44 -70.5t15.5 -85.5z" />
    <glyph glyph-name="oacute" unicode="&#xf3;" horiz-adv-x="523" 
d="M370 214q0 62 -29.5 98t-80.5 36t-81 -36t-30 -98q0 -63 30 -99t81 -36t80.5 36t29.5 99zM482 214q0 -45 -15.5 -85.5t-44 -71t-70 -48t-92.5 -17.5q-52 0 -93.5 17.5t-70.5 48t-44.5 71t-15.5 85.5t15.5 85.5t44.5 70.5t70.5 47.5t93.5 17.5q51 0 92.5 -17.5t70 -47.5
t44 -70.5t15.5 -85.5zM230 479l-29 55l182 134l49 -100z" />
    <glyph glyph-name="ocircumflex" unicode="&#xf4;" horiz-adv-x="523" 
d="M370 214q0 62 -29.5 98t-80.5 36t-81 -36t-30 -98q0 -63 30 -99t81 -36t80.5 36t29.5 99zM482 214q0 -45 -15.5 -85.5t-44 -71t-70 -48t-92.5 -17.5q-52 0 -93.5 17.5t-70.5 48t-44.5 71t-15.5 85.5t15.5 85.5t44.5 70.5t70.5 47.5t93.5 17.5q51 0 92.5 -17.5t70 -47.5
t44 -70.5t15.5 -85.5zM323 493l-65 84l-64 -84h-101l148 177h45l144 -177h-107z" />
    <glyph glyph-name="otilde" unicode="&#xf5;" horiz-adv-x="523" 
d="M434 554q-22 -26 -50.5 -42.5t-56.5 -16.5q-20 0 -35 5t-31 14q-17 11 -30 15t-27 4q-36 0 -68 -38l-40 64q22 27 50.5 43t56.5 16q20 0 35 -5t31 -14q16 -10 28.5 -14t26.5 -4q35 0 67 38zM370 214q0 62 -29.5 98t-80.5 36t-81 -36t-30 -98q0 -63 30 -99t81 -36t80.5 36
t29.5 99zM482 214q0 -45 -15.5 -85.5t-44 -71t-70 -48t-92.5 -17.5q-52 0 -93.5 17.5t-70.5 48t-44.5 71t-15.5 85.5t15.5 85.5t44.5 70.5t70.5 47.5t93.5 17.5q51 0 92.5 -17.5t70 -47.5t44 -70.5t15.5 -85.5z" />
    <glyph glyph-name="odieresis" unicode="&#xf6;" horiz-adv-x="523" 
d="M370 214q0 62 -29.5 98t-80.5 36t-81 -36t-30 -98q0 -63 30 -99t81 -36t80.5 36t29.5 99zM482 214q0 -45 -15.5 -85.5t-44 -71t-70 -48t-92.5 -17.5q-52 0 -93.5 17.5t-70.5 48t-44.5 71t-15.5 85.5t15.5 85.5t44.5 70.5t70.5 47.5t93.5 17.5q51 0 92.5 -17.5t70 -47.5
t44 -70.5t15.5 -85.5zM233 557q0 -26 -18.5 -44.5t-44.5 -18.5t-44.5 18.5t-18.5 44.5t18.5 44.5t44.5 18.5t44.5 -18.5t18.5 -44.5zM415 557q0 -26 -18 -44.5t-44 -18.5t-44.5 18.5t-18.5 44.5t18.5 44.5t44.5 18.5t44 -18.5t18 -44.5z" />
    <glyph glyph-name="divide" unicode="&#xf7;" horiz-adv-x="459" 
d="M172 147q0 24 17 41t41 17t40.5 -17t16.5 -41t-16.5 -41t-40.5 -17t-41 17t-17 41zM172 429q0 24 17 41t41 17t40.5 -17t16.5 -41q0 -23 -16.5 -40t-40.5 -17t-41 17t-17 40zM60 330h339v-84h-339v84z" />
    <glyph glyph-name="oslash" unicode="&#xf8;" horiz-adv-x="518" 
d="M187 105q29 -26 73 -26q51 0 80.5 35.5t29.5 99.5q0 33 -9 58zM333 320q-28 28 -73 28q-52 0 -82 -35.5t-30 -98.5q0 -35 10 -61zM440 348q21 -28 31.5 -62t10.5 -72q0 -46 -15.5 -86.5t-44 -70.5t-70 -47.5t-92.5 -17.5q-44 0 -79 12t-64 34q-5 -5 -13 -12t-16 -15
l-19 -19l-39 39l49 47q-43 58 -43 136q0 46 15.5 86t44.5 70t70.5 47.5t93.5 17.5q87 0 143 -48l47 46l38 -39z" />
    <glyph glyph-name="ugrave" unicode="&#xf9;" horiz-adv-x="511" 
d="M279 479l-204 91l53 97l184 -135zM349 0v66q-32 -32 -72.5 -53t-82.5 -21q-71 0 -106 40t-35 103v292h114v-264q0 -40 17.5 -58t50.5 -18q29 0 57.5 15t52.5 41v284h114v-427h-110z" />
    <glyph glyph-name="uacute" unicode="&#xfa;" horiz-adv-x="511" 
d="M349 0v66q-32 -32 -72.5 -53t-82.5 -21q-71 0 -106 40t-35 103v292h114v-264q0 -40 17.5 -58t50.5 -18q29 0 57.5 15t52.5 41v284h114v-427h-110zM224 479l-29 55l182 134l49 -100z" />
    <glyph glyph-name="ucircumflex" unicode="&#xfb;" horiz-adv-x="511" 
d="M349 0v66q-32 -32 -72.5 -53t-82.5 -21q-71 0 -106 40t-35 103v292h114v-264q0 -40 17.5 -58t50.5 -18q29 0 57.5 15t52.5 41v284h114v-427h-110zM317 493l-65 84l-64 -84h-101l148 177h45l144 -177h-107z" />
    <glyph glyph-name="udieresis" unicode="&#xfc;" horiz-adv-x="511" 
d="M349 0v66q-32 -32 -72.5 -53t-82.5 -21q-71 0 -106 40t-35 103v292h114v-264q0 -40 17.5 -58t50.5 -18q29 0 57.5 15t52.5 41v284h114v-427h-110zM227 557q0 -26 -18.5 -44.5t-44.5 -18.5t-44.5 18.5t-18.5 44.5t18.5 44.5t44.5 18.5t44.5 -18.5t18.5 -44.5zM409 557
q0 -26 -18 -44.5t-44 -18.5t-44.5 18.5t-18.5 44.5t18.5 44.5t44.5 18.5t44 -18.5t18 -44.5z" />
    <glyph glyph-name="yacute" unicode="&#xfd;" horiz-adv-x="461" 
d="M199 479l-29 55l182 134l49 -100zM161 -216h-113l130 259l-180 384h126l109 -271l107 271h123z" />
    <glyph glyph-name="thorn" unicode="&#xfe;" horiz-adv-x="534" 
d="M382 216q0 57 -29 93t-80 36q-33 0 -57.5 -11t-45.5 -34v-179q17 -20 43.5 -29.5t55.5 -9.5q48 0 80.5 35.5t32.5 98.5zM495 217q0 -46 -15.5 -87t-44 -71.5t-67.5 -48.5t-86 -18q-32 0 -59.5 7t-51.5 21v-236h-114v949h112v-345q26 23 58 35t74 12t77.5 -16t61.5 -45
t40.5 -69t14.5 -88z" />
    <glyph glyph-name="ydieresis" unicode="&#xff;" horiz-adv-x="461" 
d="M202 557q0 -26 -18.5 -44.5t-44.5 -18.5t-44.5 18.5t-18.5 44.5t18.5 44.5t44.5 18.5t44.5 -18.5t18.5 -44.5zM384 557q0 -26 -18 -44.5t-44 -18.5t-44.5 18.5t-18.5 44.5t18.5 44.5t44.5 18.5t44 -18.5t18 -44.5zM161 -216h-113l130 259l-180 384h126l109 -271l107 271
h123z" />
    <glyph glyph-name="dotlessi" unicode="&#x131;" horiz-adv-x="241" 
d="M64 0v427h114v-427h-114z" />
    <glyph glyph-name="OE" unicode="&#x152;" horiz-adv-x="1076" 
d="M563 622q-23 4 -46.5 5t-58.5 1q-66 0 -116.5 -20t-84 -55.5t-51 -85t-17.5 -108.5q0 -57 19.5 -103.5t55.5 -80t87.5 -52t116.5 -18.5q56 0 95 6v511zM617 0q-33 -3 -65.5 -4.5t-68.5 -1.5q-104 0 -184 29.5t-134 79.5t-82 116t-28 140q0 78 27 146.5t80 120.5t131.5 82
t182.5 30q38 0 70 -1.5t64 -3.5h399v-114h-321v-192h290v-110h-290v-203h321v-114h-392z" />
    <glyph glyph-name="oe" unicode="&#x153;" horiz-adv-x="805" 
d="M370 214q0 62 -30 98t-81 36t-80.5 -36t-29.5 -98q0 -63 29.5 -99t80.5 -36t81 36t30 99zM679 250q-4 44 -28.5 70t-68.5 26q-42 0 -67.5 -25t-31.5 -71h196zM780 230q0 -11 -0.5 -25.5t-2.5 -25.5h-296q6 -45 36 -71.5t97 -26.5q26 0 58.5 6.5t64.5 16.5l14 -88
q-38 -11 -76 -17.5t-70 -6.5q-65 0 -110 22t-72 58q-28 -36 -69.5 -58t-96.5 -22q-50 0 -91 17.5t-70 48t-44.5 71t-15.5 85.5t15.5 85.5t44.5 70.5t70 47.5t91 17.5q55 0 97.5 -22t70.5 -60q26 37 66.5 59.5t96.5 22.5q47 0 82.5 -16t60 -43.5t37 -65t12.5 -80.5z" />
    <glyph glyph-name="circumflex" unicode="&#x2c6;" 
d="M300 493l-65 84l-64 -84h-101l148 177h45l144 -177h-107z" />
    <glyph glyph-name="ring" unicode="&#x2da;" 
d="M285 601q0 25 -14.5 41t-35.5 16t-35.5 -15.5t-14.5 -41.5t14.5 -41.5t35.5 -15.5t35.5 15.5t14.5 41.5zM353 601q0 -23 -8.5 -44t-24 -36.5t-37 -24.5t-48.5 -9t-48.5 9t-37 24.5t-24 36.5t-8.5 44t8.5 43.5t24 36.5t37 25t48.5 9t48.5 -9t37 -25t24 -36.5t8.5 -43.5z
" />
    <glyph glyph-name="tilde" unicode="&#x2dc;" 
d="M406 554q-22 -26 -50.5 -42.5t-56.5 -16.5q-20 0 -35 5t-31 14q-17 11 -30 15t-27 4q-36 0 -68 -38l-40 64q22 27 50.5 43t56.5 16q20 0 35 -5t31 -14q16 -10 28.5 -14t26.5 -4q35 0 67 38z" />
    <glyph glyph-name="enspace" unicode="&#x2002;" horiz-adv-x="500" 
 />
    <glyph glyph-name="emspace" unicode="&#x2003;" horiz-adv-x="1000" 
 />
    <glyph glyph-name="threeperemspace" unicode="&#x2004;" horiz-adv-x="333" 
 />
    <glyph glyph-name="fourperemspace" unicode="&#x2005;" horiz-adv-x="250" 
 />
    <glyph glyph-name="figurespace" unicode="&#x2007;" horiz-adv-x="520" 
 />
    <glyph glyph-name="thinspace" unicode="&#x2009;" horiz-adv-x="133" 
 />
    <glyph glyph-name="hairspace" unicode="&#x200a;" horiz-adv-x="75" 
 />
    <glyph glyph-name="endash" unicode="&#x2013;" horiz-adv-x="500" 
d="M50 206v77h400v-77h-400z" />
    <glyph glyph-name="emdash" unicode="&#x2014;" horiz-adv-x="750" 
d="M50 206v77h650v-77h-650z" />
    <glyph glyph-name="quoteleft" unicode="&#x2018;" horiz-adv-x="192" 
d="M155 577q0 -24 -17.5 -41t-41.5 -17q-31 0 -48 21t-17 51q0 42 29 86t83 72l11 -18q-25 -22 -39.5 -46t-22.5 -47q29 -2 46 -19.5t17 -41.5z" />
    <glyph glyph-name="quoteright" unicode="&#x2019;" horiz-adv-x="192" 
d="M161 673q0 -42 -29 -86t-82 -72l-12 18q25 22 39.5 46t22.5 47q-29 2 -45.5 19.5t-16.5 41.5t17 41t41 17q32 0 48.5 -21t16.5 -51z" />
    <glyph glyph-name="quotesinglbase" unicode="&#x201a;" horiz-adv-x="216" 
d="M172 49q0 -43 -29 -87t-82 -72l-12 18q25 22 39.5 46t22.5 48q-29 2 -45.5 19t-16.5 41t17 41.5t41 17.5q32 0 48.5 -21t16.5 -51z" />
    <glyph glyph-name="quotedblleft" unicode="&#x201c;" horiz-adv-x="354" 
d="M155 577q0 -24 -17.5 -41t-41.5 -17q-31 0 -48 21t-17 51q0 42 29 86t83 72l11 -18q-25 -22 -39.5 -46t-22.5 -47q29 -2 46 -19.5t17 -41.5zM316 577q0 -24 -17 -41t-41 -17q-32 0 -48.5 21t-16.5 51q0 42 29 86t82 72l12 -18q-25 -22 -39.5 -46t-22.5 -47
q29 -2 45.5 -19.5t16.5 -41.5z" />
    <glyph glyph-name="quotedblright" unicode="&#x201d;" horiz-adv-x="354" 
d="M161 673q0 -42 -29 -86t-82 -72l-12 18q25 22 39.5 46t22.5 47q-29 2 -45.5 19.5t-16.5 41.5t17 41t41 17q32 0 48.5 -21t16.5 -51zM323 673q0 -42 -29 -86t-83 -72l-11 18q25 22 39.5 46t22.5 47q-29 2 -46 19.5t-17 41.5t17.5 41t41.5 17q31 0 48 -21t17 -51z" />
    <glyph glyph-name="quotedblbase" unicode="&#x201e;" horiz-adv-x="378" 
d="M172 48q0 -42 -29 -86t-82 -72l-12 18q25 22 39.5 46t22.5 48q-29 2 -45.5 19t-16.5 41t17 41.5t41 17.5q32 0 48.5 -21t16.5 -52zM333 48q0 -42 -28.5 -86t-82.5 -72l-11 18q25 22 39.5 46t22.5 48q-29 2 -46 19t-17 41t17.5 41.5t41.5 17.5q31 0 47.5 -21t16.5 -52z
" />
    <glyph glyph-name="dagger" unicode="&#x2020;" horiz-adv-x="460" 
d="M284 474v-327h-103v327h-148v95h148v164h103v-164h144v-95h-144z" />
    <glyph glyph-name="daggerdbl" unicode="&#x2021;" horiz-adv-x="460" 
d="M284 283v-136h-103v136h-143v96h143v123h-148v95h148v136h103v-136h144v-95h-144v-123h149v-96h-149z" />
    <glyph glyph-name="bullet" unicode="&#x2022;" horiz-adv-x="431" 
d="M377 366q0 -34 -12.5 -64t-34.5 -52t-51.5 -35t-62.5 -13q-34 0 -63.5 13t-51.5 35t-34.5 52t-12.5 64q0 35 12.5 65t34.5 52t51.5 35t63.5 13q33 0 62.5 -13t51.5 -35t34.5 -52t12.5 -65z" />
    <glyph glyph-name="ellipsis" unicode="&#x2026;" horiz-adv-x="771" 
d="M573 58q0 27 19 46t46 19t46 -19t19 -46q0 -28 -19 -47t-46 -19t-46 19t-19 47zM321 58q0 27 19 46t46 19t46 -19t19 -46q0 -28 -19 -47t-46 -19t-46 19t-19 47zM69 58q0 27 19 46t46 19t46 -19t19 -46q0 -28 -19 -47t-46 -19t-46 19t-19 47z" />
    <glyph glyph-name="perthousand" unicode="&#x2030;" horiz-adv-x="1010" 
d="M960 141q0 -30 -9 -57.5t-26 -48t-41.5 -33t-56.5 -12.5t-57 12.5t-41.5 33t-25 48t-8.5 57.5t9 57t26 47.5t42 33t57 12.5t56.5 -12.5t41 -33t25 -47.5t8.5 -57zM880 141q0 37 -13 60.5t-39 23.5t-39.5 -23.5t-13.5 -60.5t13.5 -61t39.5 -24t39 24t13 61zM656 141
q0 -30 -9 -57.5t-26 -48t-42 -33t-57 -12.5t-56.5 12.5t-41 33t-25 48t-8.5 57.5t8.5 57t25.5 47.5t42 33t57 12.5t57 -12.5t41.5 -33t25 -47.5t8.5 -57zM576 141q0 37 -13.5 60.5t-39.5 23.5t-39.5 -23.5t-13.5 -60.5t13.5 -61t39.5 -24t39.5 24t13.5 61zM142 -18l-52 44
l474 574l52 -43zM316 443q0 -30 -9 -57.5t-26 -48t-42 -33t-57 -12.5t-56.5 12.5t-41.5 33t-25.5 48t-8.5 57.5t9 57t26 48t42 33t57 12t57 -12t41.5 -33t25 -48t8.5 -57zM236 443q0 37 -13.5 60.5t-39.5 23.5t-39.5 -23.5t-13.5 -60.5t13.5 -60.5t39.5 -23.5t39.5 23.5
t13.5 60.5z" />
    <glyph glyph-name="guilsinglleft" unicode="&#x2039;" horiz-adv-x="303" 
d="M153 9l-105 164l105 163h106l-109 -163l109 -164h-106z" />
    <glyph glyph-name="guilsinglright" unicode="&#x203a;" horiz-adv-x="303" 
d="M150 9h-106l109 164l-109 163h106l105 -163z" />
    <glyph glyph-name="fraction" unicode="&#x2044;" horiz-adv-x="578" 
d="M77 -18l-51 44l474 574l51 -43z" />
    <glyph glyph-name="Euro" unicode="&#x20ac;" horiz-adv-x="649" 
d="M28 323v75h81q16 43 44 79t66 62t85 40.5t101 14.5t102.5 -16t86.5 -39l-40 -88q-34 19 -73.5 31t-78.5 12q-63 0 -107 -25.5t-67 -70.5h252v-75h-274q-1 -8 -1.5 -16t-0.5 -17t0.5 -16.5t1.5 -15.5h274v-74h-250q23 -45 68.5 -70.5t108.5 -25.5q39 0 79 12t74 32l36 -88
q-38 -23 -87.5 -39.5t-103.5 -16.5q-55 0 -102.5 14.5t-85.5 40t-66 62t-43 79.5h-80v74h64q-1 8 -1 15.5v16.5v17t1 16h-64z" />
    <glyph glyph-name="trademark" unicode="&#x2122;" horiz-adv-x="503" 
d="M144 683v-172h-54v172h-66v50h186v-50h-66zM428 511l-3 109l-61 -78h-6l-62 78l-2 -109h-50l11 224h7l100 -126l98 126h7l10 -224h-49z" />
    <glyph glyph-name="minus" unicode="&#x2212;" horiz-adv-x="459" 
d="M60 332h339v-87h-339v87z" />
    </font>
</defs>
</svg>
