<?xml version="1.0" standalone="no"?>
<!DOCTYPE svg PUBLIC "-//W3C//DTD SVG 1.1//EN" "http://www.w3.org/Graphics/SVG/1.1/DTD/svg11.dtd" >
<svg xmlns="http://www.w3.org/2000/svg" xmlns:xlink="http://www.w3.org/1999/xlink" version="1.1">
<metadata>
Created by FontForge 20170731 at Mon Nov  2 12:38:04 2020
 By Aleksey,,,
Copyright (c) 2006 The Hoefler Type Foundry, Inc., dba Hoefler &#38; Frere-Jones. All Rights Reserved.
</metadata>
<defs>
<font id="Verlag-Black" horiz-adv-x="500" >
  <font-face 
    font-family="Verlag Black"
    font-weight="450"
    font-stretch="normal"
    units-per-em="1000"
    panose-1="0 0 0 0 0 0 0 0 0 0"
    ascent="800"
    descent="-200"
    x-height="434"
    cap-height="733"
    bbox="-68 -271 1022 1012"
    underline-thickness="50"
    underline-position="-150"
    unicode-range="U+0020-2212"
  />
<missing-glyph 
 />
    <glyph glyph-name="fi" unicode="fi" horiz-adv-x="655" 
d="M444 0v434h149v-434h-149zM378 606q-10 2 -21.5 3t-24.5 1q-16 0 -29.5 -4t-23 -15t-14.5 -30t-5 -49v-78h117v-117h-117v-317h-148v317h-93v21l93 96v90q0 99 50 157.5t153 58.5q22 0 40.5 -2.5t34.5 -6.5zM602 584q0 -35 -24 -59t-59 -24t-59 24t-24 59t24 59.5
t59 24.5t59 -24.5t24 -59.5z" />
    <glyph glyph-name="fl" unicode="fl" horiz-adv-x="644" 
d="M439 0v733h148v-733h-148zM378 606q-10 2 -21.5 3t-24.5 1q-16 0 -29.5 -4t-23 -15t-14.5 -30t-5 -49v-78h117v-117h-117v-317h-148v317h-93v21l93 96v90q0 99 50 157.5t153 58.5q22 0 40.5 -2.5t34.5 -6.5z" />
    <glyph glyph-name=".notdef" 
 />
    <glyph glyph-name=".null" horiz-adv-x="0" 
 />
    <glyph glyph-name="nonmarkingreturn" horiz-adv-x="205" 
 />
    <glyph glyph-name="space" unicode=" " horiz-adv-x="205" 
 />
    <glyph glyph-name="exclam" unicode="!" horiz-adv-x="304" 
d="M230 71q0 -33 -23 -56t-55 -23q-33 0 -56 23t-23 56t23 56t56 23q32 0 55 -23t23 -56zM200 228h-97l-33 505h163z" />
    <glyph glyph-name="quotedbl" unicode="&#x22;" horiz-adv-x="450" 
d="M276 406l-55 37l127 244l96 -66zM84 416l-55 37l127 244l96 -66z" />
    <glyph glyph-name="numbersign" unicode="#" horiz-adv-x="636" 
d="M286 352l-25 -114h88l25 114h-88zM589 352h-107l-25 -114h107l-23 -100h-106l-30 -138h-107l30 138h-88l-30 -138h-108l30 138h-107l23 100h106l25 114h-106l22 100h105l30 138h107l-30 -138h88l30 138h108l-30 -138h108z" />
    <glyph glyph-name="dollar" unicode="$" horiz-adv-x="521" 
d="M196 434q0 -19 9.5 -31.5t34.5 -23.5l9 101q-28 -2 -40.5 -14.5t-12.5 -31.5zM341 163q0 20 -10 33t-38 26l-10 -109q58 6 58 50zM342 678l-8 -81q38 -6 72 -18t60 -27l-38 -124q-21 14 -49 26t-57 20l-12 -120q47 -16 79 -33.5t51.5 -38.5t28.5 -47t9 -59
q0 -40 -14.5 -73t-41.5 -58t-65 -39.5t-85 -16.5l-7 -77h-74l7 81q-51 7 -94 24.5t-72 36.5l45 125q29 -20 63 -36.5t70 -24.5l13 129q-46 16 -77 33.5t-50 38t-27 45.5t-8 56q0 36 14 67.5t39.5 55.5t62.5 39t83 18l8 78h74z" />
    <glyph glyph-name="percent" unicode="%" horiz-adv-x="745" 
d="M596 144q0 37 -11.5 57.5t-32.5 20.5q-22 0 -33.5 -20.5t-11.5 -57.5t11.5 -58t33.5 -21q21 0 32.5 21t11.5 58zM238 446q0 37 -11.5 57.5t-33.5 20.5q-21 0 -32.5 -20.5t-11.5 -57.5t11.5 -57.5t32.5 -20.5q22 0 33.5 20.5t11.5 57.5zM695 144q0 -30 -9.5 -58t-28 -49
t-45 -34t-61.5 -13q-34 0 -60.5 13t-44.5 34t-27.5 49t-9.5 58t9.5 57.5t28 49t45.5 34.5t61 13q35 0 61.5 -13t44.5 -34.5t27 -49t9 -57.5zM167 -16l-58 49l469 572l58 -49zM336 446q0 -30 -9.5 -58t-28 -49t-45 -34t-61.5 -13q-34 0 -60.5 13t-44.5 34t-27.5 49t-9.5 58
t9.5 58t28 49t45.5 34t61 13q35 0 61.5 -13t44.5 -34t27 -49t9 -58z" />
    <glyph glyph-name="ampersand" unicode="&#x26;" horiz-adv-x="656" 
d="M348 132q-29 29 -55 57t-49 55q-22 -10 -34 -29.5t-12 -41.5q0 -29 20 -47t55 -18q16 0 35.5 6.5t39.5 17.5zM380 448q0 22 -14 37t-39 15q-22 0 -35.5 -17t-13.5 -41q0 -14 6 -33.5t21 -39.5q41 14 58 35.5t17 43.5zM621 227q-22 -25 -44.5 -50t-46.5 -48q32 -28 66 -57
l-86 -85q-18 16 -38 31.5t-37 30.5q-41 -27 -85 -43t-92 -16q-39 0 -76.5 11.5t-66.5 33t-47 53.5t-18 72q0 51 36 97t97 72q-20 32 -30.5 60t-10.5 53q0 33 14 63.5t38.5 53.5t59 37t74.5 14q41 0 74 -13t56.5 -35t36 -49.5t12.5 -57.5q0 -52 -37.5 -94t-109.5 -64
q17 -20 39 -43.5t47 -46.5q25 23 47.5 47.5t41.5 48.5z" />
    <glyph glyph-name="quotesingle" unicode="'" horiz-adv-x="258" 
d="M84 416l-55 37l127 244l96 -66z" />
    <glyph glyph-name="parenleft" unicode="(" horiz-adv-x="380" 
d="M318 -248q-67 43 -116.5 100t-82.5 122.5t-49 137.5t-16 146t16 146.5t49 138t82.5 122t116.5 99.5l70 -90q-109 -75 -159 -179.5t-50 -236.5t50 -236t159 -179z" />
    <glyph glyph-name="parenright" unicode=")" horiz-adv-x="380" 
d="M326 258q0 -74 -16 -146t-49 -137.5t-82.5 -122.5t-116.5 -100l-70 91q109 75 159 179t50 236t-50 236.5t-159 179.5l70 90q67 -43 116.5 -99.5t82.5 -122t49 -138t16 -146.5z" />
    <glyph glyph-name="asterisk" unicode="*" horiz-adv-x="409" 
d="M262 553l73 -82l-76 -55l-56 94l-56 -94l-76 55l73 82l-107 24l29 89l100 -43l-10 109h94l-10 -109l100 43l29 -89z" />
    <glyph glyph-name="plus" unicode="+" horiz-adv-x="458" 
d="M284 235v-121h-110v121h-114v106h114v121h110v-121h114v-106h-114z" />
    <glyph glyph-name="comma" unicode="," horiz-adv-x="274" 
d="M216 51q0 -27 -10.5 -55.5t-29 -54.5t-43.5 -47t-54 -33l-14 22q32 28 48.5 52t25.5 57q-37 2 -58.5 24.5t-21.5 54.5q0 31 21.5 53t52.5 22q41 0 62 -28t21 -67z" />
    <glyph glyph-name="hyphen" unicode="-" horiz-adv-x="351" 
d="M47 194v105h257v-105h-257z" />
    <glyph glyph-name="period" unicode="." horiz-adv-x="274" 
d="M59 71q0 33 23 56t55 23q33 0 56 -23t23 -56t-23 -56t-56 -23q-32 0 -55 23t-23 56z" />
    <glyph glyph-name="slash" unicode="/" horiz-adv-x="374" 
d="M136 -216h-108l238 949h108z" />
    <glyph glyph-name="zero" unicode="0" horiz-adv-x="592" 
d="M398 295q0 85 -24 134.5t-77 49.5q-52 0 -76.5 -49.5t-24.5 -134.5t24.5 -134.5t76.5 -49.5q53 0 77 49.5t24 134.5zM550 295q0 -60 -16 -115.5t-48 -97.5t-79.5 -67t-111.5 -25q-63 0 -110.5 25t-78.5 67t-46.5 97.5t-15.5 115.5q0 61 16 116t48 97t79.5 67t111.5 25
q63 0 110.5 -25t78.5 -67t46.5 -97t15.5 -116z" />
    <glyph glyph-name="one" unicode="1" horiz-adv-x="411" 
d="M167 0v425l-101 -42l-47 124l249 96h47v-603h-148z" />
    <glyph glyph-name="two" unicode="2" horiz-adv-x="491" 
d="M36 0v82q65 54 110.5 96.5t74.5 77.5q35 41 50.5 71t15.5 56q0 38 -22 62t-67 24q-28 0 -53.5 -10t-53.5 -29l-52 113q22 14 42.5 25t42.5 18t46 10.5t53 3.5q49 0 87.5 -15t65.5 -41t41.5 -60t14.5 -73q0 -40 -16 -80.5t-51 -85.5q-44 -57 -121 -120h203v-125h-411z" />
    <glyph glyph-name="three" unicode="3" horiz-adv-x="487" 
d="M268 351q49 -4 83 -18t55 -35t30 -48.5t9 -58.5q0 -37 -17 -73.5t-48 -64.5t-75 -45.5t-99 -17.5q-51 0 -92.5 7.5t-76.5 19.5l31 122q60 -22 125 -22q42 0 71.5 17t29.5 51q0 27 -25 46.5t-78 19.5q-24 0 -42.5 -1.5t-37.5 -6.5l-27 69l167 153h-198v125h382v-98z" />
    <glyph glyph-name="four" unicode="4" horiz-adv-x="515" 
d="M273 364l-102 -130h102v130zM414 120v-122h-141v122h-251v101l300 380h92v-367h79v-114h-79z" />
    <glyph glyph-name="five" unicode="5" horiz-adv-x="513" 
d="M475 201q0 -44 -18 -82.5t-51.5 -67t-81 -45t-106.5 -16.5q-41 0 -81.5 7t-77.5 20l21 125q30 -11 61.5 -18t64.5 -7q60 0 91.5 20.5t31.5 51.5q0 35 -28.5 54t-94.5 19q-27 0 -57.5 -3t-56.5 -10l-9 11v330h356v-125h-217v-85q13 1 25.5 1.5t22.5 0.5q54 0 93 -14
t64 -38.5t36.5 -57.5t11.5 -71z" />
    <glyph glyph-name="six" unicode="6" horiz-adv-x="523" 
d="M338 192q0 40 -19.5 64t-53.5 24q-35 0 -56 -20.5t-21 -65.5q0 -41 20 -66t56 -25q39 0 56.5 26t17.5 63zM481 194q0 -37 -14 -73.5t-41.5 -65.5t-68.5 -47t-94 -18q-51 0 -91.5 16.5t-69 46t-43.5 69t-15 84.5q0 56 17.5 111t57.5 107t105 101t160 93l59 -117
q-34 -12 -67.5 -27.5t-63.5 -34t-55.5 -39t-43.5 -42.5q17 10 39.5 16t44.5 6q47 0 82 -15t57.5 -40.5t33.5 -59t11 -71.5z" />
    <glyph glyph-name="seven" unicode="7" horiz-adv-x="492" 
d="M229 0h-149l198 459h-225v131h439z" />
    <glyph glyph-name="eight" unicode="8" horiz-adv-x="538" 
d="M339 181q0 32 -19 50t-51 18t-51 -18t-19 -50q0 -30 19 -49t51 -19t51 19t19 49zM339 409q0 30 -19 49t-51 19t-51 -19t-19 -49q0 -32 19 -49.5t51 -17.5t51 17.5t19 49.5zM488 158q0 -34 -15 -64.5t-43.5 -53.5t-69 -36.5t-91.5 -13.5q-50 0 -90.5 13.5t-69 36.5
t-44 53.5t-15.5 64.5q0 45 21 81.5t77 60.5q-47 24 -66.5 56.5t-19.5 77.5q0 34 15 64.5t42 53t65 35.5t85 13t85 -13t65 -35.5t42 -53t15 -64.5q0 -45 -19.5 -77.5t-66.5 -56.5q56 -24 77 -60.5t21 -81.5z" />
    <glyph glyph-name="nine" unicode="9" horiz-adv-x="524" 
d="M342 396q0 41 -20.5 66t-56.5 25q-39 0 -56.5 -26t-17.5 -63q0 -39 19.5 -63.5t53.5 -24.5q36 0 57 21t21 65zM486 375q0 -52 -17.5 -104.5t-57.5 -104t-105 -100.5t-161 -93l-62 111q69 29 127 67t97 76q-17 -8 -36 -12.5t-39 -4.5q-47 0 -81.5 15t-57 40.5t-33.5 59
t-11 71.5t14 74.5t41.5 65t68 46.5t93.5 18q51 0 91.5 -16.5t69 -46t44 -71t15.5 -91.5z" />
    <glyph glyph-name="colon" unicode=":" horiz-adv-x="274" 
d="M59 323q0 32 23 55.5t55 23.5q33 0 56 -23.5t23 -55.5q0 -33 -23 -56t-56 -23q-32 0 -55 23t-23 56zM59 71q0 33 23 56t55 23q33 0 56 -23t23 -56t-23 -56t-56 -23q-32 0 -55 23t-23 56z" />
    <glyph glyph-name="semicolon" unicode=";" horiz-adv-x="274" 
d="M59 323q0 32 23 55.5t55 23.5q33 0 56 -23.5t23 -55.5q0 -33 -23 -56t-56 -23q-32 0 -55 23t-23 56zM216 51q0 -27 -10.5 -55.5t-29 -54.5t-43.5 -47t-54 -33l-14 22q32 28 48.5 52t25.5 57q-37 2 -58.5 24.5t-21.5 54.5q0 31 21.5 53t52.5 22q41 0 62 -28t21 -67z" />
    <glyph glyph-name="less" unicode="&#x3c;" horiz-adv-x="394" 
d="M266 45l-228 243l228 244l84 -87l-153 -157l153 -156z" />
    <glyph glyph-name="equal" unicode="=" horiz-adv-x="449" 
d="M60 149v101h329v-101h-329zM60 326v101h329v-101h-329z" />
    <glyph glyph-name="greater" unicode="&#x3e;" horiz-adv-x="394" 
d="M128 45l-84 87l152 156l-152 157l84 87l228 -244z" />
    <glyph glyph-name="question" unicode="?" horiz-adv-x="403" 
d="M223 71q0 -33 -23 -56t-56 -23t-56 23t-23 56t23 56t56 23t56 -23t23 -56zM393 560q0 -37 -13.5 -64.5t-34 -50.5t-44 -42.5t-44 -40t-34 -43t-13.5 -51.5v-37h-130v46q0 56 21.5 93.5t47.5 65t47.5 51.5t21.5 53q0 35 -23.5 49.5t-58.5 14.5q-21 0 -44.5 -5t-46.5 -13
l-22 128q33 11 71 18.5t77 7.5q56 0 98 -14.5t69.5 -39.5t41 -57.5t13.5 -68.5z" />
    <glyph glyph-name="at" unicode="@" horiz-adv-x="690" 
d="M392 251q-8 8 -16 11t-21 3q-16 0 -27 -8.5t-11 -22.5q0 -15 9.5 -23t25.5 -8q27 0 40 18v30zM646 316q0 -47 -17 -86t-50 -64q-15 -11 -33 -16t-36 -5q-26 0 -49 12.5t-35 37.5q-40 -43 -103 -43q-38 0 -64 21t-26 60q0 35 25 58t71 23q22 0 36 -4t27 -11v7
q0 28 -15.5 39.5t-42.5 11.5t-62 -9l-8 62q18 6 42 10t43 4q67 0 93 -30.5t26 -89.5v-64q0 -26 14.5 -36.5t31.5 -10.5q20 0 34 11q18 14 28.5 42t10.5 63q0 37 -13 78t-41.5 76t-74 58t-109.5 23q-48 0 -91.5 -20t-76 -54.5t-52 -80t-19.5 -96.5t18.5 -96.5t53 -80
t84.5 -54.5t114 -20q27 0 58.5 6.5t60.5 16.5l14 -53q-35 -11 -71 -17.5t-65 -6.5q-75 0 -135 24.5t-103 66t-66 97t-23 117.5t24 117.5t65 97t95.5 66t114.5 24.5q74 0 129.5 -26.5t92.5 -67.5t56 -91t19 -97z" />
    <glyph glyph-name="A" unicode="A" horiz-adv-x="693" 
d="M345 439l-73 -176h145zM526 0l-55 133h-253l-55 -133h-173l345 739h23l345 -739h-177z" />
    <glyph glyph-name="B" unicode="B" horiz-adv-x="674" 
d="M443 226q0 42 -33 65t-101 23q-38 0 -64 -3v-170q18 -2 31.5 -2.5t39.5 -0.5q65 0 96 23t31 65zM431 512q0 33 -27.5 56.5t-81.5 23.5q-23 0 -41 -2t-36 -5v-153q14 -2 27 -2.5t36 -0.5q62 0 92.5 21.5t30.5 61.5zM627 208q0 -43 -20.5 -82t-61 -68.5t-102 -47
t-144.5 -17.5q-48 0 -106.5 4t-112.5 11v716q20 3 46 6t54 5t55.5 3.5t49.5 1.5q80 0 140 -16.5t100.5 -44t60.5 -63t20 -73.5q0 -58 -31.5 -97.5t-94.5 -65.5q75 -23 111 -66t36 -106z" />
    <glyph glyph-name="C" unicode="C" horiz-adv-x="724" 
d="M692 56q-48 -32 -110.5 -50t-125.5 -18q-90 0 -163.5 28.5t-126.5 79t-82 120t-29 150.5q0 82 29 151.5t82 120t126.5 79t163.5 28.5q64 0 121.5 -17.5t107.5 -46.5l-52 -144q-41 23 -85.5 36t-89.5 13q-51 0 -92.5 -15t-70 -43.5t-44 -69.5t-15.5 -92t15.5 -91.5t44 -69
t70 -44t92.5 -15.5q45 0 93 14t90 40z" />
    <glyph glyph-name="D" unicode="D" horiz-adv-x="798" 
d="M562 373q0 100 -61.5 156.5t-180.5 56.5q-22 0 -36 -1t-34 -3v-432q12 -1 20.5 -2t17.5 -1.5t19 -0.5h24q60 0 103.5 16t72 46t42 72t13.5 93zM743 373q0 -81 -26 -150.5t-79.5 -120t-136.5 -79.5t-197 -29q-32 0 -58.5 0.5t-52 2t-52.5 4t-61 5.5v720q64 7 113 9.5
t104 2.5q114 0 198 -28t139 -77t82 -115.5t27 -144.5z" />
    <glyph glyph-name="E" unicode="E" horiz-adv-x="614" 
d="M80 0v733h464v-156h-294v-131h268v-148h-268v-143h294v-155h-464z" />
    <glyph glyph-name="F" unicode="F" horiz-adv-x="572" 
d="M250 577v-162h252v-149h-252v-266h-170v733h464v-156h-294z" />
    <glyph glyph-name="G" unicode="G" horiz-adv-x="775" 
d="M718 412v-350q-61 -35 -127.5 -54.5t-150.5 -19.5q-81 0 -151 27.5t-122 77.5t-82 119.5t-30 153.5t30.5 154t83.5 120t125 77.5t155 27.5q72 0 131.5 -17t114.5 -46l-71 -137q-79 41 -164 41q-55 0 -96.5 -16t-70 -45.5t-43 -70t-14.5 -88.5q0 -52 16.5 -94.5
t45.5 -71.5t68 -45t84 -16q41 0 64.5 4.5t43.5 15.5v108h-147v145h307z" />
    <glyph glyph-name="H" unicode="H" horiz-adv-x="782" 
d="M532 0v294h-282v-294h-170v733h170v-287h282v287h170v-733h-170z" />
    <glyph glyph-name="I" unicode="I" horiz-adv-x="340" 
d="M85 0v733h170v-733h-170z" />
    <glyph glyph-name="J" unicode="J" horiz-adv-x="551" 
d="M476 253q0 -60 -14 -109t-45 -83.5t-81 -53.5t-123 -19q-59 0 -105.5 12.5t-94.5 39.5l53 142q30 -19 68 -29t74 -10q52 0 75 31.5t23 93.5v465h170v-480z" />
    <glyph glyph-name="K" unicode="K" horiz-adv-x="744" 
d="M519 0l-269 343v-343h-170v733h170v-319l257 319h201l-301 -349l317 -384h-205z" />
    <glyph glyph-name="L" unicode="L" horiz-adv-x="562" 
d="M80 0v733h170v-578h294v-155h-464z" />
    <glyph glyph-name="M" unicode="M" horiz-adv-x="911" 
d="M676 0l-9 360l-203 -257h-18l-205 257l-7 -360h-164l34 738l23 2l332 -419l324 419l23 -2l35 -738h-165z" />
    <glyph glyph-name="N" unicode="N" horiz-adv-x="789" 
d="M692 -14l-442 397v-383h-170v743l23 4l436 -394v380h170v-744z" />
    <glyph glyph-name="O" unicode="O" horiz-adv-x="861" 
d="M624 366q0 50 -14 91.5t-39.5 71.5t-61 47t-79.5 17q-43 0 -79 -17t-61.5 -47t-39.5 -71.5t-14 -91.5q0 -49 14 -90.5t39.5 -72t61.5 -47.5t79 -17q44 0 79.5 17t61 47.5t39.5 72t14 90.5zM806 366q0 -81 -27.5 -150t-77.5 -119.5t-119.5 -79.5t-154.5 -29t-154 29
t-117.5 79.5t-74.5 119.5t-26 150t27.5 150.5t77 120t119.5 79.5t155 29t153.5 -29t117 -79.5t75 -120t26.5 -150.5z" />
    <glyph glyph-name="P" unicode="P" horiz-adv-x="646" 
d="M436 474q0 45 -30 75t-93 30q-17 0 -30 -1t-33 -3v-209q18 -1 28.5 -1.5t22.5 -0.5q68 0 101.5 28t33.5 82zM610 477q0 -57 -19 -104.5t-56.5 -82t-93 -54t-128.5 -19.5q-18 0 -32 0.5t-31 1.5v-219h-170v726q113 12 204 12q80 0 140.5 -20t102 -55t62.5 -82.5t21 -103.5
z" />
    <glyph glyph-name="Q" unicode="Q" horiz-adv-x="861" 
d="M625 366q0 50 -14 91.5t-39.5 71.5t-61.5 47t-79 17t-79 -17t-61.5 -47t-39.5 -71.5t-14 -91.5q0 -49 14 -90.5t39.5 -72t61.5 -47.5t79 -17t83 19l-108 92l103 118l102 -93q14 44 14 91zM722 -28l-86 78q-45 -29 -97.5 -45.5t-111.5 -16.5q-85 0 -153.5 29t-117 79.5
t-75 119.5t-26.5 150t27.5 150.5t77.5 120t119.5 79.5t154.5 29t154 -29t117.5 -79.5t74.5 -120t26 -150.5q0 -57 -16.5 -110t-45.5 -98q0 1 13 -10t28 -24q18 -15 40 -35z" />
    <glyph glyph-name="R" unicode="R" horiz-adv-x="671" 
d="M438 489q0 46 -33 71.5t-88 25.5q-20 0 -34 -1t-32 -4v-202q17 -2 28 -2.5t26 -0.5q61 0 97 28.5t36 84.5zM468 0l-125 239q-8 -1 -14.5 -1h-14.5q-19 0 -32 0.5t-31 1.5v-240h-170v726q47 5 99 8.5t117 3.5q86 0 146 -19t98.5 -52t56 -77.5t17.5 -94.5q0 -66 -33 -121.5
t-93 -90.5l172 -283h-193z" />
    <glyph glyph-name="S" unicode="S" horiz-adv-x="572" 
d="M533 216q0 -44 -16 -85t-48.5 -73t-81.5 -51t-115 -19q-31 0 -64.5 6t-66 16t-62.5 23.5t-54 29.5l47 154q45 -32 99 -51.5t106 -19.5q45 0 64 18.5t19 45.5q0 14 -4.5 26.5t-19 25.5t-40 26.5t-67.5 30.5q-48 20 -81.5 43.5t-54 50.5t-29.5 57.5t-9 63.5q0 40 16.5 78
t48.5 67.5t80.5 47.5t112.5 18q30 0 59.5 -5t56.5 -13t50 -18t39 -21l-43 -152q-16 11 -36 21.5t-41.5 19t-43 14t-41.5 5.5q-47 0 -67 -18t-20 -41q0 -18 7 -31t23 -24t40.5 -22t58.5 -26q51 -22 85.5 -45.5t55 -50t29 -57t8.5 -65.5z" />
    <glyph glyph-name="T" unicode="T" horiz-adv-x="660" 
d="M415 577v-577h-170v577h-220v156h610v-156h-220z" />
    <glyph glyph-name="U" unicode="U" horiz-adv-x="763" 
d="M693 298q0 -153 -83 -231.5t-231 -78.5q-149 0 -228 78t-79 232v435h170v-423q0 -78 34 -122.5t107 -44.5q72 0 106 44.5t34 122.5v423h170v-435z" />
    <glyph glyph-name="V" unicode="V" horiz-adv-x="700" 
d="M360 -6h-20l-350 739h195l167 -396l167 396h191z" />
    <glyph glyph-name="W" unicode="W" horiz-adv-x="1022" 
d="M759 -12l-23 -2l-225 439l-222 -439l-22 2l-267 745h195l118 -385l191 391h18l192 -388l117 382h191z" />
    <glyph glyph-name="X" unicode="X" horiz-adv-x="738" 
d="M516 0l-147 241l-149 -241h-200l241 358l-241 375h203l148 -242l149 242h199l-241 -358l241 -375h-203z" />
    <glyph glyph-name="Y" unicode="Y" horiz-adv-x="706" 
d="M438 290v-290h-170v291l-258 442h195l150 -281l150 281h191z" />
    <glyph glyph-name="Z" unicode="Z" horiz-adv-x="680" 
d="M298 155h351v-155h-622l-5 18l363 559h-337v156h608l5 -19z" />
    <glyph glyph-name="bracketleft" unicode="[" horiz-adv-x="347" 
d="M77 -216v949h249v-110h-130v-729h130v-110h-249z" />
    <glyph glyph-name="backslash" unicode="\" horiz-adv-x="375" 
d="M238 -216l-238 949h108l238 -949h-108z" />
    <glyph glyph-name="bracketright" unicode="]" horiz-adv-x="347" 
d="M21 -216v110h130v729h-130v110h249v-949h-249z" />
    <glyph glyph-name="asciicircum" unicode="^" 
d="M313 497l-63 83l-63 -83h-125l163 194h61l158 -194h-131z" />
    <glyph glyph-name="underscore" unicode="_" horiz-adv-x="520" 
d="M0 0v68h520v-68h-520z" />
    <glyph glyph-name="grave" unicode="`" 
d="M353 483l-216 94l63 116l193 -146z" />
    <glyph glyph-name="a" unicode="a" horiz-adv-x="481" 
d="M289 156q-14 12 -27.5 17.5t-34.5 5.5q-25 0 -43.5 -14t-18.5 -37q0 -24 15.5 -38t41.5 -14q25 0 40.5 8t26.5 23v49zM293 0v37q-23 -22 -49.5 -33.5t-68.5 -11.5q-31 0 -58.5 9t-47.5 26.5t-31.5 42.5t-11.5 57q0 28 10.5 52.5t31 42.5t50 28.5t67.5 10.5q35 0 58.5 -7
t45.5 -19v11q0 47 -26 66.5t-71 19.5q-22 0 -47.5 -4t-54.5 -11l-13 103q30 9 69.5 15.5t71.5 6.5q112 0 165 -50.5t53 -148.5v-243h-143z" />
    <glyph glyph-name="b" unicode="b" horiz-adv-x="557" 
d="M372 222q0 49 -19.5 77t-66.5 28q-23 0 -45 -10t-36 -26v-143q15 -21 36 -31t43 -10q45 0 66.5 30.5t21.5 84.5zM520 224q0 -46 -16 -88t-43 -74t-63.5 -51t-77.5 -19q-68 0 -119 42v-34h-144v733h148v-337q24 23 52 34.5t68 11.5q42 0 77.5 -16.5t62 -45.5t41 -69
t14.5 -87z" />
    <glyph glyph-name="c" unicode="c" horiz-adv-x="436" 
d="M430 35q-29 -18 -66.5 -30.5t-76.5 -12.5q-64 0 -111.5 18t-79.5 48.5t-48 71t-16 85.5t16 86.5t48 72.5t79.5 49.5t111.5 18.5q39 0 76.5 -12.5t66.5 -30.5l-43 -99q-23 12 -46.5 18.5t-50.5 6.5q-45 0 -78 -25.5t-33 -82.5q0 -52 33.5 -80t83.5 -28q52 0 96 25z" />
    <glyph glyph-name="d" unicode="d" horiz-adv-x="552" 
d="M352 284q-12 17 -32.5 30t-44.5 13q-38 0 -64 -25.5t-26 -82.5q0 -54 22.5 -83t65.5 -29q24 0 43 9t36 32v136zM356 0v36q-27 -23 -53.5 -33.5t-67.5 -10.5q-45 0 -81.5 17.5t-62.5 47.5t-40 71t-14 89q0 46 17 87t45.5 71.5t66 48.5t78.5 18t64 -9t44 -25v325h148v-733
h-144z" />
    <glyph glyph-name="e" unicode="e" horiz-adv-x="491" 
d="M337 253q-4 39 -25 58t-52 19q-33 0 -54 -19.5t-26 -57.5h157zM466 233q0 -10 -0.5 -30t-2.5 -31h-284q7 -37 32 -53.5t77 -16.5q27 0 62 6.5t70 16.5l14 -109q-42 -11 -84 -17.5t-77 -6.5q-64 0 -109.5 18t-74.5 48.5t-43 71t-14 85.5q0 43 14.5 84t43.5 72.5t71.5 51
t98.5 19.5q51 0 90 -16.5t64.5 -45t38.5 -66.5t13 -81z" />
    <glyph glyph-name="f" unicode="f" horiz-adv-x="382" 
d="M378 606q-10 2 -21.5 3t-24.5 1q-16 0 -29.5 -4t-23 -15t-14.5 -30t-5 -49v-78h117v-117h-117v-317h-148v317h-93v21l93 96v90q0 99 50 157.5t153 58.5q22 0 40.5 -2.5t34.5 -6.5z" />
    <glyph glyph-name="g" unicode="g" horiz-adv-x="547" 
d="M352 296q-29 29 -73 29q-41 0 -67.5 -30t-26.5 -87q0 -46 24 -74t70 -28q45 0 73 33v157zM500 -4q0 -64 -14.5 -106t-43 -67.5t-69 -36t-93.5 -10.5q-32 0 -72.5 5.5t-70.5 14.5l11 127q24 -8 53.5 -13t54.5 -5q48 0 72 20.5t24 73.5v21q-18 -13 -42 -20.5t-58 -7.5
q-45 0 -84 13.5t-68 41t-46 68.5t-17 95q0 48 17 90.5t45.5 74t67 49.5t81.5 18q35 0 60 -8t48 -23v23h144v-438z" />
    <glyph glyph-name="h" unicode="h" horiz-adv-x="544" 
d="M350 0v264q0 32 -12 43.5t-34 11.5q-23 0 -48 -12.5t-50 -39.5v-267h-149v733h148v-374q41 45 79 64t80 19q68 0 101.5 -40t33.5 -104v-298h-149z" />
    <glyph glyph-name="i" unicode="i" horiz-adv-x="273" 
d="M62 0v434h149v-434h-149zM220 584q0 -35 -24 -59t-59 -24t-59 24t-24 59t24 59.5t59 24.5t59 -24.5t24 -59.5z" />
    <glyph glyph-name="j" unicode="j" horiz-adv-x="273" 
d="M211 -22q0 -100 -48.5 -151t-154.5 -51q-41 0 -76 8l13 123q20 -5 46 -5q35 0 53 16.5t18 67.5v448h149v-456zM220 584q0 -35 -24 -59t-59 -24t-59 24t-24 59t24 59.5t59 24.5t59 -24.5t24 -59.5z" />
    <glyph glyph-name="k" unicode="k" horiz-adv-x="530" 
d="M349 0l-144 197v-197h-148v733h148v-481l137 182h174l-175 -207l182 -227h-174z" />
    <glyph glyph-name="l" unicode="l" horiz-adv-x="262" 
d="M57 0v733h148v-733h-148z" />
    <glyph glyph-name="m" unicode="m" horiz-adv-x="809" 
d="M615 0v265q0 29 -11 42t-34 13q-20 0 -40 -12t-45 -40v-268h-149v264q0 55 -45 55q-37 0 -85 -52v-267h-149v434h145v-78q41 44 76.5 65t77.5 21q51 0 79 -22.5t41 -63.5q41 44 79 65.5t80 21.5q66 0 97.5 -40t31.5 -103v-300h-149z" />
    <glyph glyph-name="n" unicode="n" horiz-adv-x="544" 
d="M350 0v264q0 32 -12 43.5t-34 11.5q-23 0 -48 -12.5t-50 -39.5v-267h-149v434h145v-78q43 44 81.5 65t80.5 21q68 0 101.5 -40t33.5 -104v-298h-149z" />
    <glyph glyph-name="o" unicode="o" horiz-adv-x="531" 
d="M352 217q0 55 -22.5 85t-63.5 30q-42 0 -64.5 -30t-22.5 -85t22.5 -85t64.5 -30q41 0 63.5 30t22.5 85zM499 217q0 -46 -15.5 -86.5t-45.5 -71.5t-73.5 -49t-98.5 -18t-98.5 18t-73.5 49t-46 71.5t-16 86.5t16 87t46 71.5t73.5 48.5t98.5 18t98.5 -18t73.5 -48.5
t45.5 -71.5t15.5 -87z" />
    <glyph glyph-name="p" unicode="p" horiz-adv-x="557" 
d="M372 219q0 51 -22.5 79.5t-61.5 28.5q-26 0 -45 -9t-38 -31v-151q15 -17 36 -23t42 -6q35 0 62 27t27 85zM520 220q0 -46 -15.5 -87.5t-44 -72.5t-67.5 -49.5t-86 -18.5q-32 0 -56.5 6.5t-45.5 17.5v-232h-148v650h144v-39q29 24 58 35.5t70 11.5q42 0 77 -17t60.5 -46.5
t39.5 -70t14 -88.5z" />
    <glyph glyph-name="q" unicode="q" horiz-adv-x="552" 
d="M352 284q-13 19 -31.5 31t-44.5 12q-42 0 -66.5 -30.5t-24.5 -84.5q0 -53 24.5 -79t64.5 -26q21 0 43.5 10t34.5 29v138zM352 -217v243q-23 -18 -50 -26t-65 -8q-42 0 -78.5 15.5t-63.5 44t-42.5 69t-15.5 89.5q0 48 16.5 90.5t44.5 74t65.5 49.5t78.5 18q42 0 66 -10.5
t48 -27.5v30h144v-651h-148z" />
    <glyph glyph-name="r" unicode="r" horiz-adv-x="372" 
d="M357 294q-54 11 -93.5 8t-57.5 -28v-274h-149v434h145v-70q15 20 30 34.5t33 24.5t40.5 14.5t51.5 4.5v-148z" />
    <glyph glyph-name="s" unicode="s" horiz-adv-x="418" 
d="M397 131q0 -32 -14.5 -58t-40 -44t-60.5 -27.5t-75 -9.5q-54 0 -101 15t-87 41l47 106q33 -23 71.5 -38t69.5 -15q26 0 38 8t12 21q0 14 -15.5 21t-39 13.5t-51 14.5t-51 21.5t-39 36.5t-15.5 59q0 33 14 60t38.5 46t58 29.5t73.5 10.5q41 0 83 -12t75 -29l-36 -106
q-33 18 -67 28.5t-62 10.5q-22 0 -33.5 -8t-11.5 -19q0 -14 16 -21.5t40.5 -14t53 -15t53 -23.5t40.5 -39t16 -63z" />
    <glyph glyph-name="t" unicode="t" horiz-adv-x="383" 
d="M245 317v-155q0 -28 10 -39t27 -11q8 0 17.5 2t20.5 5l34 -111q-29 -7 -56.5 -11.5t-55.5 -4.5q-32 0 -58.5 8t-46 27.5t-30 53.5t-10.5 85v151h-95v21l95 96v66l148 85v-151h115v-117h-115z" />
    <glyph glyph-name="u" unicode="u" horiz-adv-x="542" 
d="M350 0v73q-37 -37 -77 -59t-82 -22q-68 0 -103 40t-35 103v299h149v-264q0 -32 13.5 -43.5t35.5 -11.5q23 0 46.5 11t48.5 38v270h149v-434h-145z" />
    <glyph glyph-name="v" unicode="v" horiz-adv-x="477" 
d="M250 -11h-27l-236 445h164l89 -214l89 214h161z" />
    <glyph glyph-name="w" unicode="w" horiz-adv-x="674" 
d="M498 -11h-27l-134 235l-134 -235h-27l-181 445h164l61 -207l103 207h27l103 -207l61 207h165z" />
    <glyph glyph-name="x" unicode="x" horiz-adv-x="498" 
d="M327 0l-81 132l-83 -132h-157l153 215l-153 219h161l81 -133l83 133h157l-152 -216l152 -218h-161z" />
    <glyph glyph-name="y" unicode="y" horiz-adv-x="487" 
d="M188 -216h-148l135 262l-183 388h164l89 -242l89 242h161z" />
    <glyph glyph-name="z" unicode="z" horiz-adv-x="442" 
d="M223 120h196v-120h-399l-5 18l201 296h-182v120h385l5 -19z" />
    <glyph glyph-name="braceleft" unicode="{" horiz-adv-x="325" 
d="M319 -223q-103 0 -156 52t-53 140v174q0 32 -12.5 48.5t-49.5 16.5h-23v100h23q37 0 49.5 16.5t12.5 48.5v174q0 88 53 140.5t156 52.5v-116q-47 0 -67.5 -22t-20.5 -79v-152q0 -24 -4 -41t-13 -29.5t-24 -22.5t-36 -20q21 -10 36 -19.5t24 -22.5t13 -30t4 -41v-152
q0 -57 20.5 -78.5t67.5 -21.5v-116z" />
    <glyph glyph-name="bar" unicode="|" horiz-adv-x="285" 
d="M90 -216v949h105v-949h-105z" />
    <glyph glyph-name="braceright" unicode="}" horiz-adv-x="325" 
d="M277 208q-37 0 -49.5 -16.5t-12.5 -48.5v-174q0 -88 -53 -140t-156 -52v116q47 0 67.5 21.5t20.5 78.5v152q0 24 4 41t13 30t24 22.5t36 19.5q-21 10 -36 20t-24 22.5t-13 29.5t-4 41v152q0 57 -20.5 79t-67.5 22v116q103 0 156 -52.5t53 -140.5v-174q0 -32 12.5 -48.5
t49.5 -16.5h23v-100h-23z" />
    <glyph glyph-name="asciitilde" unicode="~" 
d="M445 358q-23 -26 -55.5 -45t-64.5 -19q-24 0 -40.5 5.5t-33.5 14.5q-20 11 -33.5 15t-31.5 4q-43 0 -77 -40l-45 82q23 26 55.5 45t64.5 19q23 0 40 -5t34 -15q18 -10 31 -13.5t29 -3.5q41 0 77 40z" />
    <glyph glyph-name="uni00A0" unicode="&#xa0;" horiz-adv-x="205" 
 />
    <glyph glyph-name="exclamdown" unicode="&#xa1;" horiz-adv-x="304" 
d="M104 505h97l33 -505h-163zM74 662q0 33 23 56t55 23q33 0 56 -23t23 -56t-23 -56t-56 -23q-32 0 -55 23t-23 56z" />
    <glyph glyph-name="cent" unicode="&#xa2;" horiz-adv-x="446" 
d="M174 217q0 -36 15.5 -61.5t44.5 -37.5l18 206q-35 -8 -56.5 -33.5t-21.5 -73.5zM223 -2q-42 7 -77 24.5t-60.5 45.5t-39.5 65t-14 82q0 50 17 90.5t48 70t73 46t92 19.5l7 79h71l-7 -83q29 -5 52.5 -15t44.5 -23l-42 -103q-16 9 -32 16t-33 11l-19 -216q23 2 45 10t42 19
l39 -101q-32 -20 -63.5 -30t-72.5 -12l-7 -81h-71z" />
    <glyph glyph-name="sterling" unicode="&#xa3;" horiz-adv-x="509" 
d="M447 429q-24 17 -50 26.5t-55 9.5q-35 0 -53.5 -20.5t-18.5 -53.5v-43h116v-117h-116v-102h211v-129h-442v129h83v102h-80v7l80 81v75q0 44 13.5 81.5t40.5 65.5t68.5 44t96.5 16q38 0 75 -11.5t69 -30.5z" />
    <glyph glyph-name="yen" unicode="&#xa5;" horiz-adv-x="591" 
d="M411 334h101v-96h-139v-58h139v-93h-139v-87h-150v87h-143v93h143v58h-143v96h105l-160 256h169l106 -197l101 197h165z" />
    <glyph glyph-name="section" unicode="&#xa7;" horiz-adv-x="504" 
d="M315 284q0 18 -25.5 27.5t-60.5 18.5q-29 -5 -29 -26q0 -9 7.5 -15.5t20.5 -12t29.5 -9.5t35.5 -9q22 7 22 26zM455 295q0 -27 -15.5 -47.5t-37.5 -37.5q16 -14 25.5 -33.5t9.5 -48.5q0 -33 -14.5 -59t-40 -44t-60.5 -27.5t-75 -9.5q-54 0 -101 15t-87 41l47 106
q33 -23 71.5 -38t69.5 -15q26 0 38 8t12 22t-17 21.5t-42.5 14.5t-55.5 15t-55.5 22t-42.5 36.5t-17 57.5q0 28 13 49.5t35 38.5q-14 13 -22 31t-8 41q0 34 14 61t39 46t58.5 29.5t73.5 10.5q41 0 83 -11.5t74 -28.5l-35 -107q-33 18 -67 29t-62 11q-22 0 -33.5 -8.5
t-11.5 -20.5q0 -13 17.5 -21t44 -15t57 -15.5t57 -22.5t44 -37t17.5 -59z" />
    <glyph glyph-name="dieresis" unicode="&#xa8;" 
d="M230 569q0 -31 -22 -53t-54 -22q-31 0 -53 22t-22 53q0 32 22 54t53 22q32 0 54 -22t22 -54zM421 569q0 -31 -21.5 -53t-53.5 -22q-31 0 -53 22t-22 53q0 32 22 54t53 22q32 0 53.5 -22t21.5 -54z" />
    <glyph glyph-name="copyright" unicode="&#xa9;" horiz-adv-x="842" 
d="M561 208q-26 -16 -58 -25.5t-64 -9.5q-46 0 -84 14.5t-65.5 41t-42.5 62t-15 77.5t15 77.5t42.5 62t65.5 41t84 14.5q33 0 62.5 -9t55.5 -24l-27 -74q-21 12 -44 19t-46 7q-54 0 -84 -30.5t-30 -83.5t30 -83t84 -30q23 0 48 7t46 20zM725 366q0 66 -24 124.5t-65 102
t-96.5 68.5t-118.5 25t-118.5 -25t-96.5 -68.5t-65 -102t-24 -124.5t24 -124t65 -101.5t96.5 -68.5t118.5 -25t118.5 25t96.5 68.5t65 101.5t24 124zM792 366q0 -78 -29 -147t-79.5 -120.5t-118 -81t-144.5 -29.5t-144.5 29.5t-118 81t-79.5 120.5t-29 147t29 147
t79.5 120.5t118 81.5t144.5 30t144.5 -30t118 -81.5t79.5 -120.5t29 -147z" />
    <glyph glyph-name="ordfeminine" unicode="&#xaa;" horiz-adv-x="397" 
d="M243 516q-19 18 -50 18q-20 0 -35 -11t-15 -30q0 -20 12.5 -30.5t33.5 -10.5q20 0 32.5 6.5t21.5 18.5v39zM246 391v30q-18 -18 -40 -27.5t-54 -9.5q-51 0 -86 28t-35 80q0 46 33.5 77t94.5 31q29 0 47.5 -5.5t36.5 -15.5v9q0 38 -21 53.5t-57 15.5q-17 0 -38 -3.5
t-44 -8.5l-10 82q23 8 55 13t58 5q89 0 132 -40.5t43 -118.5v-195h-115z" />
    <glyph glyph-name="guillemotleft" unicode="&#xab;" horiz-adv-x="521" 
d="M151 9l-105 164l105 163h134l-109 -163l109 -164h-134zM352 9l-105 164l105 163h134l-109 -163l109 -164h-134z" />
    <glyph glyph-name="registered" unicode="&#xae;" horiz-adv-x="386" 
d="M174 577q5 -1 12 -1q14 0 22 6.5t8 18.5q0 22 -28 22q-9 0 -14 -1v-45zM131 658q23 3 53 3q41 0 59 -16.5t18 -42.5q0 -15 -8 -28.5t-22 -21.5l41 -66h-49l-30 55h-19v-55h-43v172zM193 427q29 0 53.5 11.5t43.5 31t29.5 45.5t10.5 56t-10.5 56.5t-29.5 46t-43.5 31
t-53.5 11.5q-28 0 -53 -11.5t-44 -31t-29.5 -46t-10.5 -56.5t10.5 -56t29.5 -45.5t44 -31t53 -11.5zM193 397q-36 0 -67 13.5t-54 37.5t-36.5 55.5t-13.5 67.5t13.5 68t36.5 56t54 37.5t67 13.5t67 -13.5t54 -37.5t36.5 -56t13.5 -68t-13.5 -67.5t-36.5 -55t-54 -37.5
t-67 -14z" />
    <glyph glyph-name="macron" unicode="&#xaf;" 
d="M106 507v104h288v-104h-288z" />
    <glyph glyph-name="degree" unicode="&#xb0;" horiz-adv-x="380" 
d="M230 580q0 20 -11.5 33.5t-28.5 13.5t-28.5 -13t-11.5 -34t11.5 -34t28.5 -13t28.5 13t11.5 34zM305 580q0 -22 -8.5 -42t-23.5 -35.5t-36 -24.5t-47 -9q-25 0 -46.5 9t-36.5 24.5t-23.5 35.5t-8.5 42t8.5 42t23.5 35.5t36.5 24.5t46.5 9q26 0 47 -9t36 -24.5t23.5 -35.5
t8.5 -42z" />
    <glyph glyph-name="acute" unicode="&#xb4;" 
d="M163 483l-35 67l189 142l59 -120z" />
    <glyph glyph-name="paragraph" unicode="&#xb6;" horiz-adv-x="657" 
d="M317 465q-49 -11 -74 -37.5t-25 -64.5q0 -44 27 -67.5t72 -25.5v195zM482 0v465q-14 2 -29.5 3t-35.5 2v-470h-100v140q-51 -3 -98 11t-83 42t-57.5 69t-21.5 92q0 52 24.5 97t69.5 78.5t109.5 52.5t144.5 19q45 0 90 -3.5t87 -8.5v-589h-100z" />
    <glyph glyph-name="periodcentered" unicode="&#xb7;" horiz-adv-x="274" 
d="M59 366q0 33 23 56t55 23q33 0 56 -23t23 -56t-23 -56t-56 -23q-32 0 -55 23t-23 56z" />
    <glyph glyph-name="cedilla" unicode="&#xb8;" 
d="M375 -158q0 -23 -8 -43t-24.5 -36t-41 -25t-56.5 -9t-64.5 11t-66.5 31l32 76q29 -19 54.5 -28.5t50.5 -9.5q34 0 34 31q0 14 -20.5 26.5t-78.5 12.5l-5 10l35 131l55 -14l-13 -57q65 -15 91 -42.5t26 -64.5z" />
    <glyph glyph-name="ordmasculine" unicode="&#xba;" horiz-adv-x="414" 
d="M276 565q0 44 -18 68t-51 24t-51.5 -24t-18.5 -68q0 -45 18.5 -69t51.5 -24t51 24t18 69zM394 565q0 -37 -12.5 -69.5t-36.5 -57.5t-59 -39.5t-79 -14.5t-79 14.5t-59 39.5t-36.5 57.5t-12.5 69.5q0 36 12.5 69t36.5 57.5t59 39t79 14.5t79 -14.5t59 -39t36.5 -57.5
t12.5 -69z" />
    <glyph glyph-name="guillemotright" unicode="&#xbb;" horiz-adv-x="521" 
d="M169 9h-134l109 164l-109 163h134l105 -163zM370 9h-134l109 164l-109 163h134l105 -163z" />
    <glyph glyph-name="questiondown" unicode="&#xbf;" horiz-adv-x="403" 
d="M10 173q0 37 13.5 64.5t34 50.5t44 42.5t44 40t34 43t13.5 51.5v37h130v-46q0 -56 -21.5 -93.5t-47.5 -65t-47.5 -51.5t-21.5 -53q0 -35 23.5 -49.5t58.5 -14.5q21 0 44.5 5t46.5 13l22 -128q-33 -11 -71 -18.5t-77 -7.5q-56 0 -98 14.5t-69.5 39.5t-41 57.5t-13.5 68.5z
M180 662q0 33 23 56t56 23t56 -23t23 -56t-23 -56t-56 -23t-56 23t-23 56z" />
    <glyph glyph-name="Agrave" unicode="&#xc0;" horiz-adv-x="693" 
d="M361 788l-216 94l63 116l193 -146zM345 439l-73 -176h145zM526 0l-55 133h-253l-55 -133h-173l345 739h23l345 -739h-177z" />
    <glyph glyph-name="Aacute" unicode="&#xc1;" horiz-adv-x="693" 
d="M317 788l-35 67l189 142l59 -120zM345 439l-73 -176h145zM526 0l-55 133h-253l-55 -133h-173l345 739h23l345 -739h-177z" />
    <glyph glyph-name="Acircumflex" unicode="&#xc2;" horiz-adv-x="693" 
d="M406 802l-63 83l-63 -83h-125l163 194h61l158 -194h-131zM345 439l-73 -176h145zM526 0l-55 133h-253l-55 -133h-173l345 739h23l345 -739h-177z" />
    <glyph glyph-name="Atilde" unicode="&#xc3;" horiz-adv-x="693" 
d="M541 868q-23 -26 -55.5 -45t-64.5 -19q-24 0 -40.5 5.5t-33.5 14.5q-20 11 -33.5 15t-31.5 4q-43 0 -77 -40l-45 82q23 26 55.5 45t64.5 19q23 0 40 -5t34 -15q18 -10 31 -13.5t29 -3.5q41 0 77 40zM345 439l-73 -176h145zM526 0l-55 133h-253l-55 -133h-173l345 739h23
l345 -739h-177z" />
    <glyph glyph-name="Adieresis" unicode="&#xc4;" horiz-adv-x="693" 
d="M326 874q0 -31 -22 -53t-54 -22q-31 0 -53 22t-22 53q0 32 22 54t53 22q32 0 54 -22t22 -54zM517 874q0 -31 -21.5 -53t-53.5 -22q-31 0 -53 22t-22 53q0 32 22 54t53 22q32 0 53.5 -22t21.5 -54zM345 439l-73 -176h145zM526 0l-55 133h-253l-55 -133h-173l345 739h23
l345 -739h-177z" />
    <glyph glyph-name="Aring" unicode="&#xc5;" horiz-adv-x="693" 
d="M395 812q0 24 -14.5 40.5t-35.5 16.5q-20 0 -34 -15.5t-14 -41.5t14 -41.5t34 -15.5q21 0 35.5 15.5t14.5 41.5zM345 439l-73 -176h145zM475 812q0 -42 -26 -76t-70 -45l324 -691h-177l-55 133h-253l-55 -133h-173l322 691q-44 11 -70 45t-26 76q0 25 9.5 47.5t26.5 40
t41 27.5t52 10q29 0 53 -10t41 -27.5t26.5 -40t9.5 -47.5z" />
    <glyph glyph-name="AE" unicode="&#xc6;" horiz-adv-x="1014" 
d="M481 485l-137 -222h137v222zM481 0v124h-223l-77 -124h-192l492 733h463v-156h-293v-131h267v-148h-267v-143h293v-155h-463z" />
    <glyph glyph-name="Ccedilla" unicode="&#xc7;" horiz-adv-x="724" 
d="M576 -148q0 -23 -8 -43t-24.5 -36t-41 -25t-56.5 -9t-64.5 11t-66.5 31l32 76q29 -19 54.5 -28.5t50.5 -9.5q34 0 34 31q0 14 -20.5 26.5t-78.5 12.5l-5 10l24 91q-79 7 -144 38.5t-111 81t-71 115t-25 141.5q0 82 29 151.5t82 120t126.5 79t163.5 28.5q64 0 121.5 -17.5
t107.5 -46.5l-52 -144q-41 23 -85.5 36t-89.5 13q-51 0 -92.5 -15t-70 -43.5t-44 -69.5t-15.5 -92t15.5 -91.5t44 -69t70 -44t92.5 -15.5q45 0 93 14t90 40l51 -144q-47 -31 -106.5 -48.5t-120.5 -19.5l-6 -29q65 -15 91 -42.5t26 -64.5z" />
    <glyph glyph-name="Egrave" unicode="&#xc8;" horiz-adv-x="614" 
d="M327 788l-216 94l63 116l193 -146zM80 0v733h464v-156h-294v-131h268v-148h-268v-143h294v-155h-464z" />
    <glyph glyph-name="Eacute" unicode="&#xc9;" horiz-adv-x="614" 
d="M283 788l-35 67l189 142l59 -120zM80 0v733h464v-156h-294v-131h268v-148h-268v-143h294v-155h-464z" />
    <glyph glyph-name="Ecircumflex" unicode="&#xca;" horiz-adv-x="614" 
d="M372 802l-63 83l-63 -83h-125l163 194h61l158 -194h-131zM80 0v733h464v-156h-294v-131h268v-148h-268v-143h294v-155h-464z" />
    <glyph glyph-name="Edieresis" unicode="&#xcb;" horiz-adv-x="614" 
d="M292 874q0 -31 -22 -53t-54 -22q-31 0 -53 22t-22 53q0 32 22 54t53 22q32 0 54 -22t22 -54zM483 874q0 -31 -21.5 -53t-53.5 -22q-31 0 -53 22t-22 53q0 32 22 54t53 22q32 0 53.5 -22t21.5 -54zM80 0v733h464v-156h-294v-131h268v-148h-268v-143h294v-155h-464z" />
    <glyph glyph-name="Igrave" unicode="&#xcc;" horiz-adv-x="340" 
d="M185 788l-216 94l63 116l193 -146zM85 0v733h170v-733h-170z" />
    <glyph glyph-name="Iacute" unicode="&#xcd;" horiz-adv-x="340" 
d="M141 803l-35 67l189 142l59 -120zM85 0v733h170v-733h-170z" />
    <glyph glyph-name="Icircumflex" unicode="&#xce;" horiz-adv-x="340" 
d="M230 802l-63 83l-63 -83h-125l163 194h61l158 -194h-131zM85 0v733h170v-733h-170z" />
    <glyph glyph-name="Idieresis" unicode="&#xcf;" horiz-adv-x="340" 
d="M150 874q0 -31 -22 -53t-54 -22q-31 0 -53 22t-22 53q0 32 22 54t53 22q32 0 54 -22t22 -54zM341 874q0 -31 -21.5 -53t-53.5 -22q-31 0 -53 22t-22 53q0 32 22 54t53 22q32 0 53.5 -22t21.5 -54zM85 0v733h170v-733h-170z" />
    <glyph glyph-name="Eth" unicode="&#xd0;" horiz-adv-x="798" 
d="M582 373q0 100 -61.5 156.5t-180.5 56.5q-22 0 -36 -1t-34 -3v-141h114v-135h-114v-156q12 -1 20.5 -2t17.5 -1.5t19 -0.5h24q60 0 103.5 16t72 46t42 72t13.5 93zM763 373q0 -81 -26 -150.5t-79.5 -120t-136.5 -79.5t-197 -29q-32 0 -58.5 0.5t-52 2t-52.5 4t-61 5.5
v300h-73v135h73v285q64 7 113 9.5t104 2.5q114 0 198 -28t139 -77t82 -115.5t27 -144.5z" />
    <glyph glyph-name="Ntilde" unicode="&#xd1;" horiz-adv-x="789" 
d="M589 868q-23 -26 -55.5 -45t-64.5 -19q-24 0 -40.5 5.5t-33.5 14.5q-20 11 -33.5 15t-31.5 4q-43 0 -77 -40l-45 82q23 26 55.5 45t64.5 19q23 0 40 -5t34 -15q18 -10 31 -13.5t29 -3.5q41 0 77 40zM692 -14l-442 397v-383h-170v743l23 4l436 -394v380h170v-744z" />
    <glyph glyph-name="Ograve" unicode="&#xd2;" horiz-adv-x="861" 
d="M445 788l-216 94l63 116l193 -146zM624 366q0 50 -14 91.5t-39.5 71.5t-61 47t-79.5 17q-43 0 -79 -17t-61.5 -47t-39.5 -71.5t-14 -91.5q0 -49 14 -90.5t39.5 -72t61.5 -47.5t79 -17q44 0 79.5 17t61 47.5t39.5 72t14 90.5zM806 366q0 -81 -27.5 -150t-77.5 -119.5
t-119.5 -79.5t-154.5 -29t-154 29t-117.5 79.5t-74.5 119.5t-26 150t27.5 150.5t77 120t119.5 79.5t155 29t153.5 -29t117 -79.5t75 -120t26.5 -150.5z" />
    <glyph glyph-name="Oacute" unicode="&#xd3;" horiz-adv-x="861" 
d="M401 788l-35 67l189 142l59 -120zM624 366q0 50 -14 91.5t-39.5 71.5t-61 47t-79.5 17q-43 0 -79 -17t-61.5 -47t-39.5 -71.5t-14 -91.5q0 -49 14 -90.5t39.5 -72t61.5 -47.5t79 -17q44 0 79.5 17t61 47.5t39.5 72t14 90.5zM806 366q0 -81 -27.5 -150t-77.5 -119.5
t-119.5 -79.5t-154.5 -29t-154 29t-117.5 79.5t-74.5 119.5t-26 150t27.5 150.5t77 120t119.5 79.5t155 29t153.5 -29t117 -79.5t75 -120t26.5 -150.5z" />
    <glyph glyph-name="Ocircumflex" unicode="&#xd4;" horiz-adv-x="861" 
d="M490 802l-63 83l-63 -83h-125l163 194h61l158 -194h-131zM624 366q0 50 -14 91.5t-39.5 71.5t-61 47t-79.5 17q-43 0 -79 -17t-61.5 -47t-39.5 -71.5t-14 -91.5q0 -49 14 -90.5t39.5 -72t61.5 -47.5t79 -17q44 0 79.5 17t61 47.5t39.5 72t14 90.5zM806 366
q0 -81 -27.5 -150t-77.5 -119.5t-119.5 -79.5t-154.5 -29t-154 29t-117.5 79.5t-74.5 119.5t-26 150t27.5 150.5t77 120t119.5 79.5t155 29t153.5 -29t117 -79.5t75 -120t26.5 -150.5z" />
    <glyph glyph-name="Otilde" unicode="&#xd5;" horiz-adv-x="861" 
d="M625 868q-23 -26 -55.5 -45t-64.5 -19q-24 0 -40.5 5.5t-33.5 14.5q-20 11 -33.5 15t-31.5 4q-43 0 -77 -40l-45 82q23 26 55.5 45t64.5 19q23 0 40 -5t34 -15q18 -10 31 -13.5t29 -3.5q41 0 77 40zM624 366q0 50 -14 91.5t-39.5 71.5t-61 47t-79.5 17q-43 0 -79 -17
t-61.5 -47t-39.5 -71.5t-14 -91.5q0 -49 14 -90.5t39.5 -72t61.5 -47.5t79 -17q44 0 79.5 17t61 47.5t39.5 72t14 90.5zM806 366q0 -81 -27.5 -150t-77.5 -119.5t-119.5 -79.5t-154.5 -29t-154 29t-117.5 79.5t-74.5 119.5t-26 150t27.5 150.5t77 120t119.5 79.5t155 29
t153.5 -29t117 -79.5t75 -120t26.5 -150.5z" />
    <glyph glyph-name="Odieresis" unicode="&#xd6;" horiz-adv-x="861" 
d="M410 874q0 -31 -22 -53t-54 -22q-31 0 -53 22t-22 53q0 32 22 54t53 22q32 0 54 -22t22 -54zM601 874q0 -31 -21.5 -53t-53.5 -22q-31 0 -53 22t-22 53q0 32 22 54t53 22q32 0 53.5 -22t21.5 -54zM624 366q0 50 -14 91.5t-39.5 71.5t-61 47t-79.5 17q-43 0 -79 -17
t-61.5 -47t-39.5 -71.5t-14 -91.5q0 -49 14 -90.5t39.5 -72t61.5 -47.5t79 -17q44 0 79.5 17t61 47.5t39.5 72t14 90.5zM806 366q0 -81 -27.5 -150t-77.5 -119.5t-119.5 -79.5t-154.5 -29t-154 29t-117.5 79.5t-74.5 119.5t-26 150t27.5 150.5t77 120t119.5 79.5t155 29
t153.5 -29t117 -79.5t75 -120t26.5 -150.5z" />
    <glyph glyph-name="multiply" unicode="&#xd7;" horiz-adv-x="458" 
d="M136 459l93 -97l93 97l73 -73l-95 -98l95 -98l-73 -73l-93 96l-93 -96l-73 73l94 98l-94 98z" />
    <glyph glyph-name="Oslash" unicode="&#xd8;" horiz-adv-x="861" 
d="M624 366q0 48 -13 86l-294 -275q23 -18 51.5 -28t61.5 -10q44 0 79.5 17t61 47.5t39.5 72t14 90.5zM543 555q-47 38 -113 38q-43 0 -79 -17t-61.5 -47t-39.5 -71.5t-14 -91.5q0 -47 12 -86zM806 366q0 -81 -27.5 -150t-77.5 -119.5t-119.5 -79.5t-154.5 -29
q-70 0 -128.5 19.5t-104.5 54.5l-73 -68l-86 87l77 72q-57 92 -57 213q0 81 27.5 150.5t77 120t119.5 79.5t155 29q70 0 128.5 -19.5t104.5 -55.5q0 1 11 11t25 23l36 34l86 -86l-77 -72q58 -92 58 -214z" />
    <glyph glyph-name="Ugrave" unicode="&#xd9;" horiz-adv-x="763" 
d="M397 788l-216 94l63 116l193 -146zM693 298q0 -153 -83 -231.5t-231 -78.5q-149 0 -228 78t-79 232v435h170v-423q0 -78 34 -122.5t107 -44.5q72 0 106 44.5t34 122.5v423h170v-435z" />
    <glyph glyph-name="Uacute" unicode="&#xda;" horiz-adv-x="763" 
d="M353 788l-35 67l189 142l59 -120zM693 298q0 -153 -83 -231.5t-231 -78.5q-149 0 -228 78t-79 232v435h170v-423q0 -78 34 -122.5t107 -44.5q72 0 106 44.5t34 122.5v423h170v-435z" />
    <glyph glyph-name="Ucircumflex" unicode="&#xdb;" horiz-adv-x="763" 
d="M442 802l-63 83l-63 -83h-125l163 194h61l158 -194h-131zM693 298q0 -153 -83 -231.5t-231 -78.5q-149 0 -228 78t-79 232v435h170v-423q0 -78 34 -122.5t107 -44.5q72 0 106 44.5t34 122.5v423h170v-435z" />
    <glyph glyph-name="Udieresis" unicode="&#xdc;" horiz-adv-x="763" 
d="M362 874q0 -31 -22 -53t-54 -22q-31 0 -53 22t-22 53q0 32 22 54t53 22q32 0 54 -22t22 -54zM553 874q0 -31 -21.5 -53t-53.5 -22q-31 0 -53 22t-22 53q0 32 22 54t53 22q32 0 53.5 -22t21.5 -54zM693 298q0 -153 -83 -231.5t-231 -78.5q-149 0 -228 78t-79 232v435h170
v-423q0 -78 34 -122.5t107 -44.5q72 0 106 44.5t34 122.5v423h170v-435z" />
    <glyph glyph-name="Yacute" unicode="&#xdd;" horiz-adv-x="706" 
d="M324 788l-35 67l189 142l59 -120zM438 290v-290h-170v291l-258 442h195l150 -281l150 281h191z" />
    <glyph glyph-name="Thorn" unicode="&#xde;" horiz-adv-x="646" 
d="M436 361q0 45 -30 75t-93 30q-17 0 -30 -1t-33 -3v-209q18 -1 28.5 -1.5t22.5 -0.5q68 0 101.5 28t33.5 82zM610 364q0 -57 -19 -104.5t-56.5 -82t-93 -54t-128.5 -19.5q-18 0 -32 0.5t-31 1.5v-106h-170v733h170v-108h34q80 0 140.5 -20t102 -55t62.5 -82.5t21 -103.5z
" />
    <glyph glyph-name="germandbls" unicode="&#xdf;" horiz-adv-x="593" 
d="M454 223q59 -23 84 -58.5t25 -81.5q0 -42 -19.5 -75t-52.5 -55.5t-75.5 -34.5t-89.5 -12q-14 0 -29.5 1.5t-30.5 3.5l11 116q13 -2 25 -3t23 -1q48 0 69 16.5t21 43.5q0 22 -18.5 37.5t-62.5 15.5h-17t-19 -2l-7 14l100 166h-177v-314h-148v524q0 99 50 157.5t153 58.5
q22 0 40.5 -2.5t34.5 -6.5l-12 -125q-10 2 -21.5 3t-24.5 1q-16 0 -29.5 -4t-23 -15t-14.5 -30t-5 -49v-78h371l5 -12z" />
    <glyph glyph-name="agrave" unicode="&#xe0;" horiz-adv-x="481" 
d="M262 483l-216 94l63 116l193 -146zM289 156q-14 12 -27.5 17.5t-34.5 5.5q-25 0 -43.5 -14t-18.5 -37q0 -24 15.5 -38t41.5 -14q25 0 40.5 8t26.5 23v49zM293 0v37q-23 -22 -49.5 -33.5t-68.5 -11.5q-31 0 -58.5 9t-47.5 26.5t-31.5 42.5t-11.5 57q0 28 10.5 52.5
t31 42.5t50 28.5t67.5 10.5q35 0 58.5 -7t45.5 -19v11q0 47 -26 66.5t-71 19.5q-22 0 -47.5 -4t-54.5 -11l-13 103q30 9 69.5 15.5t71.5 6.5q112 0 165 -50.5t53 -148.5v-243h-143z" />
    <glyph glyph-name="aacute" unicode="&#xe1;" horiz-adv-x="481" 
d="M218 483l-35 67l189 142l59 -120zM289 156q-14 12 -27.5 17.5t-34.5 5.5q-25 0 -43.5 -14t-18.5 -37q0 -24 15.5 -38t41.5 -14q25 0 40.5 8t26.5 23v49zM293 0v37q-23 -22 -49.5 -33.5t-68.5 -11.5q-31 0 -58.5 9t-47.5 26.5t-31.5 42.5t-11.5 57q0 28 10.5 52.5t31 42.5
t50 28.5t67.5 10.5q35 0 58.5 -7t45.5 -19v11q0 47 -26 66.5t-71 19.5q-22 0 -47.5 -4t-54.5 -11l-13 103q30 9 69.5 15.5t71.5 6.5q112 0 165 -50.5t53 -148.5v-243h-143z" />
    <glyph glyph-name="acircumflex" unicode="&#xe2;" horiz-adv-x="481" 
d="M307 497l-63 83l-63 -83h-125l163 194h61l158 -194h-131zM289 156q-14 12 -27.5 17.5t-34.5 5.5q-25 0 -43.5 -14t-18.5 -37q0 -24 15.5 -38t41.5 -14q25 0 40.5 8t26.5 23v49zM293 0v37q-23 -22 -49.5 -33.5t-68.5 -11.5q-31 0 -58.5 9t-47.5 26.5t-31.5 42.5t-11.5 57
q0 28 10.5 52.5t31 42.5t50 28.5t67.5 10.5q35 0 58.5 -7t45.5 -19v11q0 47 -26 66.5t-71 19.5q-22 0 -47.5 -4t-54.5 -11l-13 103q30 9 69.5 15.5t71.5 6.5q112 0 165 -50.5t53 -148.5v-243h-143z" />
    <glyph glyph-name="atilde" unicode="&#xe3;" horiz-adv-x="481" 
d="M442 563q-23 -26 -55.5 -45t-64.5 -19q-24 0 -40.5 5.5t-33.5 14.5q-20 11 -33.5 15t-31.5 4q-43 0 -77 -40l-45 82q23 26 55.5 45t64.5 19q23 0 40 -5t34 -15q18 -10 31 -13.5t29 -3.5q41 0 77 40zM289 156q-14 12 -27.5 17.5t-34.5 5.5q-25 0 -43.5 -14t-18.5 -37
q0 -24 15.5 -38t41.5 -14q25 0 40.5 8t26.5 23v49zM293 0v37q-23 -22 -49.5 -33.5t-68.5 -11.5q-31 0 -58.5 9t-47.5 26.5t-31.5 42.5t-11.5 57q0 28 10.5 52.5t31 42.5t50 28.5t67.5 10.5q35 0 58.5 -7t45.5 -19v11q0 47 -26 66.5t-71 19.5q-22 0 -47.5 -4t-54.5 -11
l-13 103q30 9 69.5 15.5t71.5 6.5q112 0 165 -50.5t53 -148.5v-243h-143z" />
    <glyph glyph-name="adieresis" unicode="&#xe4;" horiz-adv-x="481" 
d="M227 569q0 -31 -22 -53t-54 -22q-31 0 -53 22t-22 53q0 32 22 54t53 22q32 0 54 -22t22 -54zM418 569q0 -31 -21.5 -53t-53.5 -22q-31 0 -53 22t-22 53q0 32 22 54t53 22q32 0 53.5 -22t21.5 -54zM289 156q-14 12 -27.5 17.5t-34.5 5.5q-25 0 -43.5 -14t-18.5 -37
q0 -24 15.5 -38t41.5 -14q25 0 40.5 8t26.5 23v49zM293 0v37q-23 -22 -49.5 -33.5t-68.5 -11.5q-31 0 -58.5 9t-47.5 26.5t-31.5 42.5t-11.5 57q0 28 10.5 52.5t31 42.5t50 28.5t67.5 10.5q35 0 58.5 -7t45.5 -19v11q0 47 -26 66.5t-71 19.5q-22 0 -47.5 -4t-54.5 -11
l-13 103q30 9 69.5 15.5t71.5 6.5q112 0 165 -50.5t53 -148.5v-243h-143z" />
    <glyph glyph-name="aring" unicode="&#xe5;" horiz-adv-x="481" 
d="M297 614q0 24 -14.5 40.5t-35.5 16.5q-20 0 -34 -15.5t-14 -41.5t14 -41.5t34 -15.5q21 0 35.5 15.5t14.5 41.5zM377 614q0 -25 -9.5 -47.5t-26.5 -39.5t-41 -27.5t-53 -10.5q-28 0 -52 10.5t-41 27.5t-26.5 39.5t-9.5 47.5t9.5 47.5t26.5 40t41 27.5t52 10q29 0 53 -10
t41 -27.5t26.5 -40t9.5 -47.5zM289 156q-14 12 -27.5 17.5t-34.5 5.5q-25 0 -43.5 -14t-18.5 -37q0 -24 15.5 -38t41.5 -14q25 0 40.5 8t26.5 23v49zM293 0v37q-23 -22 -49.5 -33.5t-68.5 -11.5q-31 0 -58.5 9t-47.5 26.5t-31.5 42.5t-11.5 57q0 28 10.5 52.5t31 42.5
t50 28.5t67.5 10.5q35 0 58.5 -7t45.5 -19v11q0 47 -26 66.5t-71 19.5q-22 0 -47.5 -4t-54.5 -11l-13 103q30 9 69.5 15.5t71.5 6.5q112 0 165 -50.5t53 -148.5v-243h-143z" />
    <glyph glyph-name="ae" unicode="&#xe6;" horiz-adv-x="748" 
d="M311 138q-14 22 -34.5 34.5t-53.5 12.5q-23 0 -40.5 -14.5t-17.5 -37.5q0 -24 15.5 -37.5t41.5 -13.5q25 0 50 13.5t39 42.5zM594 253q-3 39 -24 58t-52 19q-33 0 -54 -19.5t-26 -57.5h156zM290 246q0 47 -26 66.5t-71 19.5q-23 0 -48 -4t-54 -11l-13 103q29 9 66.5 15.5
t69.5 6.5q114 0 164 -61q28 28 64.5 44.5t80.5 16.5q49 0 86.5 -16.5t62.5 -45t38 -66.5t13 -81q0 -10 -0.5 -30t-2.5 -31h-284q7 -37 32.5 -53.5t77.5 -16.5q26 0 61.5 6.5t69.5 16.5l14 -109q-42 -11 -81.5 -17.5t-74.5 -6.5q-60 0 -105.5 22t-74.5 58q-36 -39 -77 -59.5
t-90 -20.5q-72 0 -117 35t-45 100q0 28 10.5 52.5t31 42.5t50 28.5t67.5 10.5q35 0 58.5 -7t46.5 -19v11z" />
    <glyph glyph-name="ccedilla" unicode="&#xe7;" horiz-adv-x="436" 
d="M385 -148q0 -23 -8 -43t-24.5 -36t-41 -25t-56.5 -9t-64.5 11t-66.5 31l32 76q29 -19 54.5 -28.5t50.5 -9.5q34 0 34 31q0 14 -20.5 26.5t-78.5 12.5l-5 10l26 99q-46 9 -81 29.5t-58 49t-34.5 64t-11.5 74.5q0 45 16 86.5t48 72.5t79.5 49.5t111.5 18.5q39 0 76.5 -12.5
t66.5 -30.5l-43 -99q-23 12 -46.5 18.5t-50.5 6.5q-45 0 -78 -25.5t-33 -82.5q0 -52 33.5 -80t83.5 -28q52 0 96 25l38 -99q-29 -18 -66.5 -30.5t-76.5 -12.5h-12l-7 -33q65 -15 91 -42.5t26 -64.5z" />
    <glyph glyph-name="egrave" unicode="&#xe8;" horiz-adv-x="491" 
d="M273 483l-216 94l63 116l193 -146zM337 253q-4 39 -25 58t-52 19q-33 0 -54 -19.5t-26 -57.5h157zM466 233q0 -10 -0.5 -30t-2.5 -31h-284q7 -37 32 -53.5t77 -16.5q27 0 62 6.5t70 16.5l14 -109q-42 -11 -84 -17.5t-77 -6.5q-64 0 -109.5 18t-74.5 48.5t-43 71t-14 85.5
q0 43 14.5 84t43.5 72.5t71.5 51t98.5 19.5q51 0 90 -16.5t64.5 -45t38.5 -66.5t13 -81z" />
    <glyph glyph-name="eacute" unicode="&#xe9;" horiz-adv-x="491" 
d="M229 483l-35 67l189 142l59 -120zM337 253q-4 39 -25 58t-52 19q-33 0 -54 -19.5t-26 -57.5h157zM466 233q0 -10 -0.5 -30t-2.5 -31h-284q7 -37 32 -53.5t77 -16.5q27 0 62 6.5t70 16.5l14 -109q-42 -11 -84 -17.5t-77 -6.5q-64 0 -109.5 18t-74.5 48.5t-43 71t-14 85.5
q0 43 14.5 84t43.5 72.5t71.5 51t98.5 19.5q51 0 90 -16.5t64.5 -45t38.5 -66.5t13 -81z" />
    <glyph glyph-name="ecircumflex" unicode="&#xea;" horiz-adv-x="491" 
d="M318 497l-63 83l-63 -83h-125l163 194h61l158 -194h-131zM337 253q-4 39 -25 58t-52 19q-33 0 -54 -19.5t-26 -57.5h157zM466 233q0 -10 -0.5 -30t-2.5 -31h-284q7 -37 32 -53.5t77 -16.5q27 0 62 6.5t70 16.5l14 -109q-42 -11 -84 -17.5t-77 -6.5q-64 0 -109.5 18
t-74.5 48.5t-43 71t-14 85.5q0 43 14.5 84t43.5 72.5t71.5 51t98.5 19.5q51 0 90 -16.5t64.5 -45t38.5 -66.5t13 -81z" />
    <glyph glyph-name="edieresis" unicode="&#xeb;" horiz-adv-x="491" 
d="M238 569q0 -31 -22 -53t-54 -22q-31 0 -53 22t-22 53q0 32 22 54t53 22q32 0 54 -22t22 -54zM429 569q0 -31 -21.5 -53t-53.5 -22q-31 0 -53 22t-22 53q0 32 22 54t53 22q32 0 53.5 -22t21.5 -54zM337 253q-4 39 -25 58t-52 19q-33 0 -54 -19.5t-26 -57.5h157zM466 233
q0 -10 -0.5 -30t-2.5 -31h-284q7 -37 32 -53.5t77 -16.5q27 0 62 6.5t70 16.5l14 -109q-42 -11 -84 -17.5t-77 -6.5q-64 0 -109.5 18t-74.5 48.5t-43 71t-14 85.5q0 43 14.5 84t43.5 72.5t71.5 51t98.5 19.5q51 0 90 -16.5t64.5 -45t38.5 -66.5t13 -81z" />
    <glyph glyph-name="igrave" unicode="&#xec;" horiz-adv-x="272" 
d="M151 483l-216 94l63 116l193 -146zM62 0v434h149v-434h-149z" />
    <glyph glyph-name="iacute" unicode="&#xed;" horiz-adv-x="272" 
d="M107 483l-35 67l189 142l59 -120zM62 0v434h149v-434h-149z" />
    <glyph glyph-name="icircumflex" unicode="&#xee;" horiz-adv-x="272" 
d="M196 497l-63 83l-63 -83h-125l163 194h61l158 -194h-131zM62 0v434h149v-434h-149z" />
    <glyph glyph-name="idieresis" unicode="&#xef;" horiz-adv-x="272" 
d="M116 569q0 -31 -22 -53t-54 -22q-31 0 -53 22t-22 53q0 32 22 54t53 22q32 0 54 -22t22 -54zM307 569q0 -31 -21.5 -53t-53.5 -22q-31 0 -53 22t-22 53q0 32 22 54t53 22q32 0 53.5 -22t21.5 -54zM62 0v434h149v-434h-149z" />
    <glyph glyph-name="eth" unicode="&#xf0;" horiz-adv-x="541" 
d="M364 218q0 56 -26 85.5t-65 29.5q-38 0 -63.5 -28t-25.5 -82t23.5 -89t67.5 -35q45 0 67 32.5t22 86.5zM106 536l55 48q-24 14 -48 25t-45 18l57 118q32 -14 67 -32t70 -41l66 58l62 -76l-50 -41q35 -31 64.5 -68t52 -81.5t35 -97t12.5 -114.5q0 -58 -15.5 -106.5
t-45.5 -83.5t-73 -54.5t-99 -19.5q-59 0 -103 19.5t-73 52t-43.5 74.5t-14.5 86t12.5 84t37 70.5t62.5 48.5t89 18q29 0 55 -8t46 -22q-15 32 -41 62t-58 56l-77 -64z" />
    <glyph glyph-name="ntilde" unicode="&#xf1;" horiz-adv-x="544" 
d="M473 563q-23 -26 -55.5 -45t-64.5 -19q-24 0 -40.5 5.5t-33.5 14.5q-20 11 -33.5 15t-31.5 4q-43 0 -77 -40l-45 82q23 26 55.5 45t64.5 19q23 0 40 -5t34 -15q18 -10 31 -13.5t29 -3.5q41 0 77 40zM350 0v264q0 32 -12 43.5t-34 11.5q-23 0 -48 -12.5t-50 -39.5v-267
h-149v434h145v-78q43 44 81.5 65t80.5 21q68 0 101.5 -40t33.5 -104v-298h-149z" />
    <glyph glyph-name="ograve" unicode="&#xf2;" horiz-adv-x="541" 
d="M285 483l-216 94l63 116l193 -146zM352 217q0 55 -22.5 85t-63.5 30q-42 0 -64.5 -30t-22.5 -85t22.5 -85t64.5 -30q41 0 63.5 30t22.5 85zM499 217q0 -46 -15.5 -86.5t-45.5 -71.5t-73.5 -49t-98.5 -18t-98.5 18t-73.5 49t-46 71.5t-16 86.5t16 87t46 71.5t73.5 48.5
t98.5 18t98.5 -18t73.5 -48.5t45.5 -71.5t15.5 -87z" />
    <glyph glyph-name="oacute" unicode="&#xf3;" horiz-adv-x="541" 
d="M241 483l-35 67l189 142l59 -120zM352 217q0 55 -22.5 85t-63.5 30q-42 0 -64.5 -30t-22.5 -85t22.5 -85t64.5 -30q41 0 63.5 30t22.5 85zM499 217q0 -46 -15.5 -86.5t-45.5 -71.5t-73.5 -49t-98.5 -18t-98.5 18t-73.5 49t-46 71.5t-16 86.5t16 87t46 71.5t73.5 48.5
t98.5 18t98.5 -18t73.5 -48.5t45.5 -71.5t15.5 -87z" />
    <glyph glyph-name="ocircumflex" unicode="&#xf4;" horiz-adv-x="541" 
d="M330 497l-63 83l-63 -83h-125l163 194h61l158 -194h-131zM352 217q0 55 -22.5 85t-63.5 30q-42 0 -64.5 -30t-22.5 -85t22.5 -85t64.5 -30q41 0 63.5 30t22.5 85zM499 217q0 -46 -15.5 -86.5t-45.5 -71.5t-73.5 -49t-98.5 -18t-98.5 18t-73.5 49t-46 71.5t-16 86.5t16 87
t46 71.5t73.5 48.5t98.5 18t98.5 -18t73.5 -48.5t45.5 -71.5t15.5 -87z" />
    <glyph glyph-name="otilde" unicode="&#xf5;" horiz-adv-x="541" 
d="M465 563q-23 -26 -55.5 -45t-64.5 -19q-24 0 -40.5 5.5t-33.5 14.5q-20 11 -33.5 15t-31.5 4q-43 0 -77 -40l-45 82q23 26 55.5 45t64.5 19q23 0 40 -5t34 -15q18 -10 31 -13.5t29 -3.5q41 0 77 40zM352 217q0 55 -22.5 85t-63.5 30q-42 0 -64.5 -30t-22.5 -85t22.5 -85
t64.5 -30q41 0 63.5 30t22.5 85zM499 217q0 -46 -15.5 -86.5t-45.5 -71.5t-73.5 -49t-98.5 -18t-98.5 18t-73.5 49t-46 71.5t-16 86.5t16 87t46 71.5t73.5 48.5t98.5 18t98.5 -18t73.5 -48.5t45.5 -71.5t15.5 -87z" />
    <glyph glyph-name="odieresis" unicode="&#xf6;" horiz-adv-x="541" 
d="M250 569q0 -31 -22 -53t-54 -22q-31 0 -53 22t-22 53q0 32 22 54t53 22q32 0 54 -22t22 -54zM441 569q0 -31 -21.5 -53t-53.5 -22q-31 0 -53 22t-22 53q0 32 22 54t53 22q32 0 53.5 -22t21.5 -54zM352 217q0 55 -22.5 85t-63.5 30q-42 0 -64.5 -30t-22.5 -85t22.5 -85
t64.5 -30q41 0 63.5 30t22.5 85zM499 217q0 -46 -15.5 -86.5t-45.5 -71.5t-73.5 -49t-98.5 -18t-98.5 18t-73.5 49t-46 71.5t-16 86.5t16 87t46 71.5t73.5 48.5t98.5 18t98.5 -18t73.5 -48.5t45.5 -71.5t15.5 -87z" />
    <glyph glyph-name="divide" unicode="&#xf7;" horiz-adv-x="458" 
d="M164 142q0 27 19 46t46 19t46 -19t19 -46t-19 -46t-46 -19t-46 19t-19 46zM164 434q0 27 19 46t46 19t46 -19t19 -46t-19 -46t-46 -19t-46 19t-19 46zM60 338h338v-100h-338v100z" />
    <glyph glyph-name="oslash" unicode="&#xf8;" horiz-adv-x="531" 
d="M208 124q24 -22 58 -22q41 0 63.5 30t22.5 85q0 24 -4 41zM323 309q-23 23 -57 23q-42 0 -64.5 -30t-22.5 -85q0 -25 4 -41zM452 358q47 -59 47 -141q0 -46 -15.5 -86.5t-45.5 -71.5t-73.5 -49t-98.5 -18q-45 0 -82 12t-66 33q-10 -9 -18 -17.5t-15 -14.5q-8 -7 -14 -13
l-39 39l47 45q-23 29 -35 65.5t-12 75.5q0 46 16 87t46 71.5t73.5 48.5t98.5 18q45 0 82 -12t65 -34l48 46l38 -39z" />
    <glyph glyph-name="ugrave" unicode="&#xf9;" horiz-adv-x="542" 
d="M289 483l-216 94l63 116l193 -146zM350 0v73q-37 -37 -77 -59t-82 -22q-68 0 -103 40t-35 103v299h149v-264q0 -32 13.5 -43.5t35.5 -11.5q23 0 46.5 11t48.5 38v270h149v-434h-145z" />
    <glyph glyph-name="uacute" unicode="&#xfa;" horiz-adv-x="542" 
d="M245 483l-35 67l189 142l59 -120zM350 0v73q-37 -37 -77 -59t-82 -22q-68 0 -103 40t-35 103v299h149v-264q0 -32 13.5 -43.5t35.5 -11.5q23 0 46.5 11t48.5 38v270h149v-434h-145z" />
    <glyph glyph-name="ucircumflex" unicode="&#xfb;" horiz-adv-x="542" 
d="M334 497l-63 83l-63 -83h-125l163 194h61l158 -194h-131zM350 0v73q-37 -37 -77 -59t-82 -22q-68 0 -103 40t-35 103v299h149v-264q0 -32 13.5 -43.5t35.5 -11.5q23 0 46.5 11t48.5 38v270h149v-434h-145z" />
    <glyph glyph-name="udieresis" unicode="&#xfc;" horiz-adv-x="542" 
d="M254 569q0 -31 -22 -53t-54 -22q-31 0 -53 22t-22 53q0 32 22 54t53 22q32 0 54 -22t22 -54zM445 569q0 -31 -21.5 -53t-53.5 -22q-31 0 -53 22t-22 53q0 32 22 54t53 22q32 0 53.5 -22t21.5 -54zM350 0v73q-37 -37 -77 -59t-82 -22q-68 0 -103 40t-35 103v299h149v-264
q0 -32 13.5 -43.5t35.5 -11.5q23 0 46.5 11t48.5 38v270h149v-434h-145z" />
    <glyph glyph-name="yacute" unicode="&#xfd;" horiz-adv-x="487" 
d="M214 483l-35 67l189 142l59 -120zM188 -216h-148l135 262l-183 388h164l89 -242l89 242h161z" />
    <glyph glyph-name="thorn" unicode="&#xfe;" horiz-adv-x="557" 
d="M372 219q0 51 -22.5 79.5t-61.5 28.5q-26 0 -44.5 -9t-37.5 -31v-151q15 -17 35.5 -23t41.5 -6q35 0 62 27t27 85zM520 220q0 -46 -15.5 -87.5t-44 -72.5t-67.5 -49.5t-86 -18.5q-32 0 -56 6.5t-45 17.5v-232h-149v949h149v-335q28 23 56 33.5t67 10.5q42 0 77 -17
t60.5 -46.5t39.5 -70t14 -88.5z" />
    <glyph glyph-name="ydieresis" unicode="&#xff;" horiz-adv-x="487" 
d="M223 569q0 -31 -22 -53t-54 -22q-31 0 -53 22t-22 53q0 32 22 54t53 22q32 0 54 -22t22 -54zM414 569q0 -31 -21.5 -53t-53.5 -22q-31 0 -53 22t-22 53q0 32 22 54t53 22q32 0 53.5 -22t21.5 -54zM188 -216h-148l135 262l-183 388h164l89 -242l89 242h161z" />
    <glyph glyph-name="dotlessi" unicode="&#x131;" horiz-adv-x="273" 
d="M62 0v434h149v-434h-149z" />
    <glyph glyph-name="OE" unicode="&#x152;" horiz-adv-x="1072" 
d="M539 582q-12 1 -20.5 2t-17.5 1.5t-19 0.5h-24q-51 0 -92 -16t-70 -45.5t-44.5 -71.5t-15.5 -94q0 -50 17.5 -89.5t49 -67t74 -42t92.5 -14.5q22 0 36 1t34 3v432zM633 0q-37 -3 -70.5 -4.5t-71.5 -1.5q-104 0 -185.5 28t-137 77t-84.5 116t-29 144q0 81 28 150.5
t82.5 120t134.5 79.5t184 29q42 0 74.5 -1.5t67.5 -3.5h376v-156h-293v-131h267v-148h-267v-143h293v-155h-369z" />
    <glyph glyph-name="oe" unicode="&#x153;" horiz-adv-x="805" 
d="M352 217q0 55 -22.5 85t-64.5 30q-41 0 -63.5 -30t-22.5 -85t22.5 -85t63.5 -30q42 0 64.5 30t22.5 85zM656 253q-3 39 -24 58t-52 19q-33 0 -54 -19.5t-26 -57.5h156zM785 233q0 -10 -0.5 -30t-2.5 -31h-283q6 -37 31.5 -53.5t77.5 -16.5q26 0 61.5 6.5t69.5 16.5
l14 -109q-42 -11 -81.5 -17.5t-74.5 -6.5q-60 0 -103.5 18.5t-71.5 50.5q-29 -32 -69.5 -50.5t-91.5 -18.5q-53 0 -95.5 18t-72 49t-45.5 71.5t-16 86.5t16 87t45.5 71.5t72 48.5t95.5 18q52 0 93.5 -19.5t70.5 -52.5q28 32 68 52t92 20q49 0 86.5 -16.5t62.5 -45t38 -66.5
t13 -81z" />
    <glyph glyph-name="circumflex" unicode="&#x2c6;" 
d="M313 497l-63 83l-63 -83h-125l163 194h61l158 -194h-131z" />
    <glyph glyph-name="ring" unicode="&#x2da;" 
d="M299 614q0 24 -14.5 40.5t-35.5 16.5q-20 0 -34 -15.5t-14 -41.5t14 -41.5t34 -15.5q21 0 35.5 15.5t14.5 41.5zM379 614q0 -25 -9.5 -47.5t-26.5 -39.5t-41 -27.5t-53 -10.5q-28 0 -52 10.5t-41 27.5t-26.5 39.5t-9.5 47.5t9.5 47.5t26.5 40t41 27.5t52 10q29 0 53 -10
t41 -27.5t26.5 -40t9.5 -47.5z" />
    <glyph glyph-name="tilde" unicode="&#x2dc;" 
d="M445 563q-23 -26 -55.5 -45t-64.5 -19q-24 0 -40.5 5.5t-33.5 14.5q-20 11 -33.5 15t-31.5 4q-43 0 -77 -40l-45 82q23 26 55.5 45t64.5 19q23 0 40 -5t34 -15q18 -10 31 -13.5t29 -3.5q41 0 77 40z" />
    <glyph glyph-name="enspace" unicode="&#x2002;" 
 />
    <glyph glyph-name="emspace" unicode="&#x2003;" horiz-adv-x="1000" 
 />
    <glyph glyph-name="threeperemspace" unicode="&#x2004;" horiz-adv-x="333" 
 />
    <glyph glyph-name="fourperemspace" unicode="&#x2005;" horiz-adv-x="250" 
 />
    <glyph glyph-name="figurespace" unicode="&#x2007;" horiz-adv-x="520" 
 />
    <glyph glyph-name="thinspace" unicode="&#x2009;" horiz-adv-x="133" 
 />
    <glyph glyph-name="hairspace" unicode="&#x200a;" horiz-adv-x="75" 
 />
    <glyph glyph-name="endash" unicode="&#x2013;" 
d="M50 203v87h400v-87h-400z" />
    <glyph glyph-name="emdash" unicode="&#x2014;" horiz-adv-x="750" 
d="M50 203v87h650v-87h-650z" />
    <glyph glyph-name="quoteleft" unicode="&#x2018;" horiz-adv-x="212" 
d="M176 568q0 -28 -20 -48t-48 -20q-36 0 -56 24t-20 59q0 24 9 48t24.5 45.5t37.5 39t48 29.5l12 -20q-42 -36 -60 -87q33 -2 53 -22t20 -48z" />
    <glyph glyph-name="quoteright" unicode="&#x2019;" horiz-adv-x="212" 
d="M180 662q0 -24 -8.5 -48t-24.5 -45.5t-37.5 -39t-47.5 -29.5l-13 20q42 36 60 87q-33 2 -52.5 22t-19.5 48t19.5 48t47.5 20q36 0 56 -24t20 -59z" />
    <glyph glyph-name="quotesinglbase" unicode="&#x201a;" horiz-adv-x="260" 
d="M202 63q0 -24 -8.5 -48t-24.5 -45.5t-37.5 -39t-47.5 -29.5l-13 20q42 36 60 87q-33 2 -52.5 22t-19.5 48t19.5 48t47.5 20q36 0 56 -24t20 -59z" />
    <glyph glyph-name="quotedblleft" unicode="&#x201c;" horiz-adv-x="388" 
d="M176 568q0 -28 -20 -48t-48 -20q-36 0 -56 24t-20 59q0 24 9 48t24.5 45.5t37.5 39t48 29.5l12 -20q-42 -36 -60 -87q33 -2 53 -22t20 -48zM351 568q0 -28 -19.5 -48t-47.5 -20q-36 0 -56 24t-20 59q0 24 8.5 48t24.5 45.5t37.5 39t47.5 29.5l13 -20q-42 -36 -60 -87
q33 -2 52.5 -22t19.5 -48z" />
    <glyph glyph-name="quotedblright" unicode="&#x201d;" horiz-adv-x="388" 
d="M180 662q0 -24 -8.5 -48t-24.5 -45.5t-37.5 -39t-47.5 -29.5l-13 20q42 36 60 87q-33 2 -52.5 22t-19.5 48t19.5 48t47.5 20q36 0 56 -24t20 -59zM356 662q0 -24 -8.5 -48t-24.5 -45.5t-38 -39t-48 -29.5l-12 20q42 36 60 87q-33 2 -53 22t-20 48t20 48t48 20
q36 0 56 -24t20 -59z" />
    <glyph glyph-name="quotedblbase" unicode="&#x201e;" horiz-adv-x="436" 
d="M202 63q0 -24 -8.5 -48t-24.5 -45.5t-37.5 -39t-47.5 -29.5l-13 20q42 36 60 87q-33 2 -52.5 22t-19.5 48t19.5 48t47.5 20q36 0 56 -24t20 -59zM378 63q0 -24 -8.5 -48t-24.5 -45.5t-38 -39t-48 -29.5l-12 20q42 36 60 87q-33 2 -53 22t-20 48t20 48t48 20q36 0 56 -24
t20 -59z" />
    <glyph glyph-name="dagger" unicode="&#x2020;" horiz-adv-x="465" 
d="M300 455v-317h-131v317h-134v123h134v155h131v-155h130v-123h-130z" />
    <glyph glyph-name="daggerdbl" unicode="&#x2021;" horiz-adv-x="465" 
d="M300 264v-126h-130v126h-130v124h130v95h-135v123h135v127h130v-127h130v-123h-130v-95h135v-124h-135z" />
    <glyph glyph-name="bullet" unicode="&#x2022;" horiz-adv-x="482" 
d="M428 366q0 -39 -14.5 -74t-40 -60.5t-59.5 -40.5t-73 -15t-73 15t-59.5 40.5t-40 60.5t-14.5 74q0 40 14.5 74.5t40 60.5t59.5 41t73 15t73 -15t59.5 -41t40 -60.5t14.5 -74.5z" />
    <glyph glyph-name="ellipsis" unicode="&#x2026;" horiz-adv-x="842" 
d="M617 71q0 33 23 56t55 23q33 0 56 -23t23 -56t-23 -56t-56 -23q-32 0 -55 23t-23 56zM343 71q0 33 23 56t55 23q33 0 56 -23t23 -56t-23 -56t-56 -23q-32 0 -55 23t-23 56zM69 71q0 33 23 56t55 23q33 0 56 -23t23 -56t-23 -56t-56 -23q-32 0 -55 23t-23 56z" />
    <glyph glyph-name="perthousand" unicode="&#x2030;" horiz-adv-x="1067" 
d="M1017 144q0 -30 -9.5 -58t-28 -49t-45 -34t-61.5 -13q-34 0 -60.5 13t-44.5 34t-27.5 49t-9.5 58t9.5 57.5t28 49t45.5 34.5t61 13q35 0 61.5 -13t44.5 -34.5t27 -49t9 -57.5zM918 144q0 37 -11.5 57.5t-32.5 20.5q-22 0 -33.5 -20.5t-11.5 -57.5t11.5 -58t33.5 -21
q21 0 32.5 21t11.5 58zM695 144q0 -30 -9.5 -58t-28 -49t-45 -34t-61.5 -13q-34 0 -60.5 13t-44.5 34t-27.5 49t-9.5 58t9.5 57.5t28 49t45.5 34.5t61 13q35 0 61.5 -13t44.5 -34.5t27 -49t9 -57.5zM596 144q0 37 -11.5 57.5t-32.5 20.5q-22 0 -33.5 -20.5t-11.5 -57.5
t11.5 -58t33.5 -21q21 0 32.5 21t11.5 58zM167 -16l-58 49l469 572l58 -49zM336 446q0 -30 -9.5 -58t-28 -49t-45 -34t-61.5 -13q-34 0 -60.5 13t-44.5 34t-27.5 49t-9.5 58t9.5 58t28 49t45.5 34t61 13q35 0 61.5 -13t44.5 -34t27 -49t9 -58zM238 446q0 37 -11.5 57.5
t-33.5 20.5q-21 0 -32.5 -20.5t-11.5 -57.5t11.5 -57.5t32.5 -20.5q22 0 33.5 20.5t11.5 57.5z" />
    <glyph glyph-name="guilsinglleft" unicode="&#x2039;" horiz-adv-x="328" 
d="M151 9l-105 164l105 163h134l-109 -163l109 -164h-134z" />
    <glyph glyph-name="guilsinglright" unicode="&#x203a;" horiz-adv-x="328" 
d="M176 9h-134l109 164l-109 163h134l105 -163z" />
    <glyph glyph-name="fraction" unicode="&#x2044;" horiz-adv-x="579" 
d="M83 -16l-58 49l469 572l58 -49z" />
    <glyph glyph-name="Euro" unicode="&#x20ac;" horiz-adv-x="647" 
d="M28 320v83h80q16 44 44 80t66.5 62.5t86.5 41t104 14.5q51 0 99 -15t87 -39l-48 -112q-32 17 -66 27t-70 10q-56 0 -92.5 -18t-56.5 -51h227v-83h-253q-1 -5 -1 -11.5v-14.5v-13.5t1 -11.5h253v-83h-226q20 -32 57.5 -50.5t93.5 -18.5q35 0 71.5 10t67.5 29l45 -112
q-38 -25 -88 -40.5t-101 -15.5q-56 0 -104.5 14.5t-87 40.5t-66.5 62.5t-43 80.5h-80v83h63q-1 6 -1 11v13v14.5t1 12.5h-63z" />
    <glyph glyph-name="trademark" unicode="&#x2122;" horiz-adv-x="516" 
d="M153 674v-168h-62v168h-66v59h194v-59h-66zM432 506l-3 101l-59 -68h-6l-60 68l-2 -101h-56l11 228l8 1l103 -122l102 122l7 -1l11 -228h-56z" />
    <glyph glyph-name="minus" unicode="&#x2212;" horiz-adv-x="458" 
d="M60 341h338v-106h-338v106z" />
    </font>
</defs>
</svg>
