<?xml version="1.0" standalone="no"?>
<!DOCTYPE svg PUBLIC "-//W3C//DTD SVG 1.1//EN" "http://www.w3.org/Graphics/SVG/1.1/DTD/svg11.dtd" >
<svg xmlns="http://www.w3.org/2000/svg" xmlns:xlink="http://www.w3.org/1999/xlink" version="1.1">
<metadata>
Created by FontForge 20170731 at Mon Nov  2 12:38:00 2020
 By Aleksey,,,
Copyright (C) 2007, 2015 Hoefler &#38; Co. http://www.typography.com
</metadata>
<defs>
<font id="Archer-Black" horiz-adv-x="722" >
  <font-face 
    font-family="Archer Black"
    font-weight="900"
    font-stretch="normal"
    units-per-em="2048"
    panose-1="2 0 0 0 0 0 0 0 0 0"
    ascent="1638"
    descent="-410"
    x-height="915"
    cap-height="1348"
    bbox="-147 -465 2437 1962"
    underline-thickness="102"
    underline-position="-307"
    unicode-range="U+000D-2212"
  />
<missing-glyph horiz-adv-x="1024" 
d="M0 -410v2048h1024v-2048h-1024zM145 1536l367 -799l367 799h-734zM102 -156l353 770l-353 770v-1540zM922 1384l-353 -770l353 -770v1540zM512 492l-367 -799h734z" />
    <glyph glyph-name="f_f" unicode="ff" horiz-adv-x="1351" 
d="M461 913h366v158q0 119 27.5 201.5t89.5 144.5q106 101 264 101q104 0 171 -52t67 -131q0 -66 -40 -104.5t-97 -38.5q-101 0 -142 90q-23 -10 -34 -29q-35 -47 -35 -159v-179h227v-217h-227v-483h164v-215h-551v215h114v483h-362v-483h153v-215h-546v215h120v483h-143
v217h143v129q0 111 30 201.5t85 145.5q88 88 240 88q102 0 165.5 -49t63.5 -127q0 -64 -37.5 -102t-93.5 -38q-90 0 -133 84q-14 -11 -16 -14q-33 -44 -33 -166v-154z" />
    <glyph glyph-name="fi" unicode="fi" horiz-adv-x="1273" 
d="M1104 915v-700h121v-215h-510v215h116v483h-368v-483h151v-215h-544v215h120v483h-143v217h143v144q0 219 123 342q114 117 289 117q126 0 198 -57t72 -146q0 -65 -43.5 -109.5t-105.5 -44.5q-59 0 -100 35t-52 90q-35 -3 -67 -41q-39 -48 -39 -166v-164h639z" />
    <glyph glyph-name="fl" unicode="fl" horiz-adv-x="1267" 
d="M707 215h116v483h-360v-483h151v-215h-544v215h120v483h-143v217h143v150q0 209 113 328q119 125 315 125q156 0 256 -80l33 65h191v-1288h125v-215h-516v215zM635 1288q-79 0 -121 -45q-51 -51 -51 -164v-166h360v144q-50 14 -80 53t-30 92q0 37 12 64q-42 22 -90 22z
" />
    <glyph glyph-name="f_f_i" unicode="ffi" horiz-adv-x="1908" 
d="M1507 1315q0 -65 -43.5 -109.5t-105.5 -44.5q-58 0 -99.5 35.5t-52.5 87.5q-35 -3 -63 -33q-43 -49 -43 -172v-164h639v-700h121v-215h-510v215h114v483h-366v-483h151v-215h-538v215h114v483h-362v-483h153v-215h-546v215h120v483h-143v217h143v146q0 201 105 309
q100 109 278 109q96 0 158 -43q82 -46 82 -138q0 -62 -37.5 -99.5t-93.5 -37.5q-44 0 -79.5 22.5t-55.5 65.5q-32 -9 -47 -28q-39 -39 -39 -142v-166h366v146q0 221 121 342q114 117 289 117q126 0 198 -57t72 -146z" />
    <glyph glyph-name="f_f_l" unicode="ffl" horiz-adv-x="1902" 
d="M461 1079v-166h366v152q0 210 111 330q117 123 315 123q156 0 256 -80l33 65h189v-1288h127v-215h-517v215h117v483h-360v-483h151v-215h-538v215h114v483h-362v-483h153v-215h-546v215h120v483h-143v217h143v146q0 201 105 309q100 109 278 109q96 0 158 -43
q82 -46 82 -138q0 -62 -37.5 -99.5t-93.5 -37.5q-44 0 -79.5 22.5t-55.5 65.5q-32 -9 -47 -28q-39 -39 -39 -142zM1098 1079v-166h360v144q-50 14 -81 53t-31 92q0 36 12 66q-44 20 -90 20q-76 0 -121 -45q-49 -52 -49 -164z" />
    <glyph glyph-name="f_b" unicode="fb" horiz-adv-x="1826" 
d="M823 -2v700h-360v-483h155v-215h-548v215h120v483h-143v217h143v150q0 209 113 328q119 125 315 125q155 0 256 -82l33 67h191v-680q120 111 260 111q179 0 295 -134t116 -337q0 -130 -55.5 -240t-154.5 -175.5t-218 -65.5q-148 0 -270 104l-43 -88h-205zM1274 205
q88 0 151.5 67t63.5 189q0 121 -61 186.5t-152 65.5t-178 -76v-373q84 -59 176 -59zM713 1202q0 37 12 64q-42 22 -90 22q-79 0 -121 -45q-51 -51 -51 -164v-166h360v144q-50 14 -80 53t-30 92z" />
    <glyph glyph-name="f_h" unicode="fh" horiz-adv-x="1832" 
d="M823 215v483h-360v-483h151v-215h-544v215h120v483h-143v217h143v150q0 209 113 328q119 125 315 125q156 0 256 -80l33 65h191v-723q142 154 303 154q142 0 217 -90q65 -77 65 -205v-424h121v-215h-499v215h106v348q0 57 -29 99q-32 38 -96 38q-95 0 -188 -77v-408h106
v-215h-497v215h116zM713 1202q0 37 12 64q-42 22 -90 22q-79 0 -121 -45q-51 -51 -51 -164v-166h360v144q-50 14 -80 53t-30 92z" />
    <glyph glyph-name="f_j" unicode="fj" horiz-adv-x="1216" 
d="M831 698h-368v-483h155v-215h-548v215h120v483h-143v217h143v144q0 219 123 342q114 117 289 117q126 0 198 -57t72 -146q0 -65 -43.5 -109.5t-105.5 -44.5q-59 0 -100 35t-52 90q-35 -3 -67 -41q-39 -48 -39 -166v-164h641v-905q0 -165 -74 -274q-103 -160 -313 -160
q-122 0 -188 51.5t-66 128.5q0 59 40.5 101.5t102.5 42.5q54 0 92.5 -34.5t49.5 -82.5q31 16 53 61q28 61 28 146v708z" />
    <glyph glyph-name="f_k" unicode="fk" horiz-adv-x="1812" 
d="M1098 1503v-989l243 195h-118v206h542v-217h-155l-191 -151l211 -330h135v-217h-313l-242 401l-112 -92v-100h98v-209h-489v215h116v483h-360v-483h151v-215h-544v215h120v483h-143v217h143v150q0 209 113 328q119 125 315 125q156 0 256 -80l33 65h191zM463 1079v-166
h360v144q-50 14 -80 53t-30 92q0 37 12 64q-42 22 -90 22q-79 0 -121 -45q-51 -51 -51 -164z" />
    <glyph glyph-name="f_f_b" unicode="ffb" horiz-adv-x="2461" 
d="M1458 -2v700h-360v-483h164v-215h-551v215h114v483h-362v-483h153v-215h-546v215h120v483h-143v217h143v146q0 201 105 309q100 109 278 109q96 0 158 -43q82 -46 82 -138q0 -62 -37.5 -99.5t-93.5 -37.5q-44 0 -79.5 22.5t-55.5 65.5q-32 -9 -47 -28q-39 -39 -39 -142
v-166h366v152q0 211 111 328q119 125 315 125q153 0 256 -80l33 65h189v-680q62 54 122 82.5t138 28.5q179 0 295 -134t116 -337q0 -199 -123 -340t-305 -141q-149 0 -268 104l-45 -88h-203zM1909 205q88 0 151.5 67t63.5 189q0 121 -62 186.5t-151 65.5t-180 -76v-373
q84 -59 178 -59zM1346 1202q0 36 12 66q-44 20 -90 20q-76 0 -121 -45q-49 -52 -49 -164v-166h360v144q-50 14 -81 53t-31 92z" />
    <glyph glyph-name="f_f_h" unicode="ffh" horiz-adv-x="2467" 
d="M1731 1503v-723q150 154 303 154q144 0 219 -90q65 -77 65 -205v-424h119v-215h-498v215h105v348q0 65 -27 99q-32 38 -96 38q-93 0 -190 -77v-408h108v-215h-498v215h117v483h-360v-483h151v-215h-538v215h114v483h-362v-483h153v-215h-546v215h120v483h-143v217h143
v146q0 201 105 309q100 109 278 109q96 0 158 -43q82 -46 82 -138q0 -62 -37.5 -99.5t-93.5 -37.5q-44 0 -79.5 22.5t-55.5 65.5q-32 -9 -47 -28q-39 -39 -39 -142v-166h366v152q0 211 111 328q119 125 315 125q156 0 256 -80l33 65h189zM1098 1079v-166h360v144
q-50 14 -81 53t-31 92q0 37 12 64q-42 22 -90 22q-76 0 -121 -45q-49 -52 -49 -164z" />
    <glyph glyph-name="f_f_j" unicode="ffj" horiz-adv-x="1851" 
d="M1739 915v-905q0 -168 -74 -274q-49 -78 -130 -119t-181 -41q-122 0 -188 51.5t-66 128.5q0 58 40.5 101t100.5 43q56 0 92.5 -34.5t48.5 -82.5q35 19 56 61q26 46 26 146v708h-366v-483h155v-215h-542v215h114v483h-362v-483h153v-215h-546v215h120v483h-143v217h143
v146q0 201 105 309q100 109 278 109q96 0 158 -43q82 -46 82 -138q0 -62 -37.5 -99.5t-93.5 -37.5q-44 0 -79.5 22.5t-55.5 65.5q-32 -9 -47 -28q-39 -39 -39 -142v-166h366v146q0 221 121 342q114 117 289 117q126 0 198 -57t72 -146q0 -65 -43.5 -109.5t-105.5 -44.5
q-58 0 -99.5 35.5t-52.5 87.5q-35 -3 -63 -33q-43 -49 -43 -172v-164h639z" />
    <glyph glyph-name="f_f_k" unicode="ffk" horiz-adv-x="2447" 
d="M1731 1503v-989l243 195h-116v206h542v-217h-155l-191 -151l211 -330h135v-217h-313l-242 401l-114 -92v-100h100v-209h-490v215h117v483h-360v-483h151v-215h-538v215h114v483h-362v-483h153v-215h-546v215h120v483h-143v217h143v146q0 201 105 309q100 109 278 109
q96 0 158 -43q82 -46 82 -138q0 -62 -37.5 -99.5t-93.5 -37.5q-44 0 -79.5 22.5t-55.5 65.5q-32 -9 -47 -28q-39 -39 -39 -142v-166h366v152q0 211 111 328q119 125 315 125q156 0 256 -80l33 65h189zM1098 1079v-166h360v144q-50 14 -81 53t-31 92q0 37 12 64
q-42 22 -90 22q-76 0 -121 -45q-49 -52 -49 -164z" />
    <glyph glyph-name=".notdef" horiz-adv-x="1024" 
d="M0 -410v2048h1024v-2048h-1024zM145 1536l367 -799l367 799h-734zM102 -156l353 770l-353 770v-1540zM922 1384l-353 -770l353 -770v1540zM512 492l-367 -799h734z" />
    <glyph glyph-name=".null" horiz-adv-x="0" 
 />
    <glyph glyph-name="nonmarkingreturn" horiz-adv-x="682" 
 />
    <glyph glyph-name="NUL" horiz-adv-x="0" 
 />
    <glyph glyph-name="NUL" horiz-adv-x="0" 
 />
    <glyph glyph-name="CR" unicode="&#xd;" horiz-adv-x="0" 
 />
    <glyph glyph-name="space" unicode=" " horiz-adv-x="471" 
 />
    <glyph glyph-name="exclam" unicode="!" horiz-adv-x="591" 
d="M295 -18q-69 0 -118.5 49t-49.5 121t49.5 121t118.5 49q72 0 121 -49t49 -121t-49 -121t-121 -49zM213 432l-96 916h358l-98 -916h-164z" />
    <glyph glyph-name="quotedbl" unicode="&#x22;" horiz-adv-x="876" 
d="M602 737l-94 422q-24 94 23 154.5t128 60.5t128.5 -60.5t23.5 -154.5l-96 -422h-113zM160 737l-97 422q-20 95 26.5 155t127.5 60q82 0 128 -59.5t24 -155.5l-97 -422h-112z" />
    <glyph glyph-name="numbersign" unicode="#" horiz-adv-x="1198" 
d="M125 649v205h194l37 236h226l-37 -236h200l37 236h226l-37 -236h170v-205h-201l-31 -194h166v-205h-196l-39 -250h-226l37 250h-198l-39 -250h-226l39 250h-168v205h199l31 194h-164zM508 662l-35 -220h215l35 220h-215z" />
    <glyph glyph-name="dollar" unicode="$" horiz-adv-x="1105" 
d="M709 1233l-15 -146q138 -22 229 -84t91 -157q0 -67 -36.5 -106.5t-96.5 -39.5q-64 0 -102 37t-38 94q0 28 9 43q-40 13 -88 21l-21 -242q87 -20 151.5 -44.5t122 -62t87.5 -92.5t30 -126q0 -155 -125 -244t-327 -94l-17 -209l-174 14l19 205q-69 11 -127.5 31t-108 51
t-78 77.5t-28.5 102.5q0 66 39.5 107t101.5 41t102.5 -39t40.5 -95q0 -32 -8 -53q35 -14 100 -24l23 252q-84 22 -144 47.5t-110.5 62t-76 88.5t-25.5 119q0 133 112 224.5t299 103.5l15 151zM766 305q0 38 -37 62.5t-123 48.5l-20 -226q83 5 131.5 33.5t48.5 81.5zM373 791
q0 -40 28.5 -62t100.5 -41l16 209q-69 -7 -107 -35t-38 -71z" />
    <glyph glyph-name="percent" unicode="%" horiz-adv-x="1458" 
d="M377 545q-124 0 -209.5 81.5t-85.5 198.5t85.5 199t209.5 82q123 0 208 -82t85 -199t-85 -198.5t-208 -81.5zM377 705q48 0 78 33t30 87t-30 86.5t-78 32.5q-50 0 -80.5 -32.5t-30.5 -86.5t30.5 -87t80.5 -33zM1081 545q123 0 208 -82t85 -199q0 -118 -85 -200t-208 -82
q-122 0 -208.5 82t-86.5 200q0 117 86.5 199t208.5 82zM1081 385q-49 0 -79.5 -33.5t-30.5 -87.5t30.5 -87.5t79.5 -33.5q48 0 78.5 33.5t30.5 87.5t-30.5 87.5t-78.5 33.5zM289 -31l-105 103q338 338 508 518q326 349 479 530l105 -102q-19 -19 -128.5 -127t-203.5 -203
t-172 -178q-114 -121 -258 -283.5t-225 -257.5z" />
    <glyph glyph-name="ampersand" unicode="&#x26;" horiz-adv-x="1400" 
d="M1243 475q-82 0 -121 66q-17 -13 -34.5 -38.5t-29.5 -48.5t-34 -69l2 -2q28 -25 140 -118t141 -115l-152 -187q-28 21 -128.5 104t-135.5 115q-148 -207 -408 -207q-203 0 -314.5 100.5t-111.5 258.5q0 120 72.5 217t194.5 156q-79 92 -106.5 159.5t-27.5 141.5
q0 62 26.5 121.5t75 107.5t124.5 77t168 29q178 0 281.5 -87.5t103.5 -229.5q0 -119 -75 -208t-200 -148l74 -66l92 -84q75 139 152.5 210t185.5 71q89 0 142 -50.5t53 -121.5q0 -64 -42.5 -109t-107.5 -45zM520 199q120 0 211 123q-45 38 -93.5 83.5t-51.5 51.5
q-62 52 -119 110q-127 -81 -127 -200q0 -66 49 -117t131 -51zM457 1006q0 -45 21 -92.5t81 -110.5q152 81 152 213q0 52 -33.5 87.5t-91.5 35.5t-93.5 -41t-35.5 -92z" />
    <glyph glyph-name="quotesingle" unicode="'" horiz-adv-x="434" 
d="M160 737l-97 422q-20 95 26.5 155t127.5 60q82 0 128 -59.5t24 -155.5l-97 -422h-112z" />
    <glyph glyph-name="parenleft" unicode="(" horiz-adv-x="892" 
d="M889 -283l-123 -182q-79 38 -160 94.5t-170.5 148t-157.5 198.5t-112.5 253.5t-44.5 305.5q0 133 30.5 258t83.5 223t118 182.5t140 149.5t141.5 110t131.5 76l123 -182q-55 -36 -98.5 -68t-97.5 -79.5t-94.5 -94.5t-81.5 -111t-67 -131.5t-42.5 -153.5t-16.5 -179
t16.5 -179t43 -153.5t67 -131.5t81.5 -111.5t94.5 -95t97 -79.5t98.5 -68z" />
    <glyph glyph-name="parenright" unicode=")" horiz-adv-x="892" 
d="M127 -465l-123 182q55 36 98.5 68t97 79.5t94.5 95t81.5 111.5t67 131.5t43 153.5t16.5 179t-16.5 179t-42.5 153.5t-67 131.5t-81.5 111t-94.5 94.5t-97.5 79.5t-98.5 68l123 182q79 -38 159 -94t170 -148t158 -198.5t113 -253t45 -305.5q0 -115 -23.5 -224t-62.5 -197
t-93 -169t-112 -143t-122.5 -115.5t-121 -89.5t-110.5 -62z" />
    <glyph glyph-name="asterisk" unicode="*" horiz-adv-x="987" 
d="M786 987l-239 -8l190 -139q60 -43 69 -103t-40 -102q-57 -44 -117 -20.5t-86 104.5l-69 213l-70 -213q-26 -80 -86 -104t-115 20q-49 41 -41 101t70 104l188 139l-239 8q-75 1 -114.5 41t-27.5 100q13 66 73 86.5t134 -26.5l193 -137l-72 231q-24 74 5 126t102 52
t101.5 -52t4.5 -126l-72 -231l193 137q74 47 134 26.5t73 -86.5q12 -60 -27.5 -100t-114.5 -41z" />
    <glyph glyph-name="plus" unicode="+" horiz-adv-x="948" 
d="M369 205v270h-275v209h275v270h211v-270h272v-209h-272v-270h-211z" />
    <glyph glyph-name="comma" unicode="," horiz-adv-x="540" 
d="M82 -344l-68 100q94 70 148.5 138.5t60.5 117.5q-60 13 -96.5 59.5t-36.5 108.5q0 69 54.5 119.5t129.5 50.5q80 0 134.5 -55.5t54.5 -155.5q0 -263 -381 -483z" />
    <glyph glyph-name="hyphen" unicode="-" horiz-adv-x="765" 
d="M86 455v250h594v-250h-594z" />
    <glyph glyph-name="period" unicode="." horiz-adv-x="540" 
d="M270 -16q-75 0 -128.5 53.5t-53.5 128.5q0 78 53 131t129 53t129.5 -53.5t53.5 -130.5q0 -75 -54 -128.5t-129 -53.5z" />
    <glyph glyph-name="slash" unicode="/" horiz-adv-x="1013" 
d="M174 -449l-217 99l842 1880l217 -96z" />
    <glyph glyph-name="zero" unicode="0" horiz-adv-x="1212" 
d="M606 -18q-157 0 -280 73t-190.5 201t-67.5 289q0 160 67.5 288.5t190.5 202.5t280 74t280.5 -74t191 -202.5t67.5 -288.5q0 -161 -67.5 -289t-191 -201t-280.5 -73zM606 207q115 0 185.5 93t70.5 245q0 153 -70.5 246.5t-185.5 93.5t-185.5 -93.5t-70.5 -246.5
q0 -152 70.5 -245t185.5 -93z" />
    <glyph glyph-name="one" unicode="1" horiz-adv-x="905" 
d="M104 0v215h242v602l-201 -51l-59 217l397 109h138v-877h233v-215h-750z" />
    <glyph glyph-name="two" unicode="2" horiz-adv-x="1091" 
d="M528 891q-100 0 -163 -37q18 -32 18 -66q0 -65 -44 -106t-108 -41q-66 0 -110.5 46.5t-44.5 117.5q0 89 80 172q60 60 160 96.5t229 36.5q105 0 190.5 -27.5t139.5 -73.5t83 -103.5t29 -119.5q0 -51 -16.5 -95.5t-41.5 -77.5t-69 -67.5t-83 -58.5t-99 -57
q-115 -63 -186 -113t-115 -106h418v164h225v-375h-918l-59 141q61 136 170.5 239t257.5 189q53 31 79 46.5t62 40t52 41.5t28.5 39t12.5 44q0 49 -49.5 80t-127.5 31z" />
    <glyph glyph-name="three" unicode="3" horiz-adv-x="1052" 
d="M33 41q0 74 45.5 124t118.5 50q65 0 109 -45.5t44 -106.5q0 -41 -18 -71q72 -35 168 -35q99 0 159 49.5t60 134.5q0 108 -98 156q-62 39 -199 39h-74v209h78q121 0 195 45q86 52 86 143q0 76 -56.5 117t-142.5 41q-90 0 -146 -29q23 -38 23 -74q0 -65 -44 -106t-108 -41
q-66 0 -110.5 46.5t-44.5 117.5q0 100 82 182q123 123 364 123q202 0 330.5 -102t128.5 -254q0 -75 -38 -137.5t-101 -106.5q-60 -46 -133 -61q82 -24 137 -66q151 -99 151 -264q0 -171 -139.5 -277t-357.5 -106q-142 0 -249.5 44.5t-166.5 117.5q-53 65 -53 143z" />
    <glyph glyph-name="four" unicode="4" horiz-adv-x="1169" 
d="M680 -242v330h-578l-67 141l651 904l211 -150l-504 -684h289v223l264 94v-315h189v-215h-187v-328h-268z" />
    <glyph glyph-name="five" unicode="5" horiz-adv-x="1067" 
d="M57 6q0 76 45.5 125t116.5 49q66 0 111 -45t45 -108q0 -26 -13 -52q61 -14 119 -14q114 0 179 63t65 164q0 95 -63 149t-183 54q-129 0 -237 -63l-133 61l81 701h744v-244h-531l-32 -258q77 22 170 22q201 0 330.5 -113t129.5 -309q0 -197 -141.5 -324.5t-357.5 -127.5
q-258 0 -375 117q-70 67 -70 153z" />
    <glyph glyph-name="six" unicode="6" horiz-adv-x="1159" 
d="M651 1124q-58 0 -112.5 -28t-99 -81.5t-71 -141.5t-26.5 -197q40 70 124.5 116t188.5 46q191 0 318 -117.5t127 -298.5q0 -192 -141.5 -316t-362.5 -124q-226 0 -367 141q-155 155 -155 475q0 174 44 316t121 236t183.5 145t230.5 51q102 0 185 -29.5t135 -81.5
q63 -63 63 -148q0 -70 -45.5 -116.5t-116.5 -46.5q-66 0 -110.5 44t-44.5 105q0 22 6 43q-31 8 -74 8zM594 201q100 0 165.5 64t65.5 157q0 89 -61.5 149t-163.5 60q-104 0 -172 -61t-68 -154q0 -89 66 -152q69 -63 168 -63z" />
    <glyph glyph-name="seven" unicode="7" horiz-adv-x="1083" 
d="M432 -256l-239 109l528 1013h-420v-219h-248v443h914l69 -154z" />
    <glyph glyph-name="eight" unicode="8" horiz-adv-x="1128" 
d="M563 -20q-228 0 -365 109t-137 273q0 104 62 186t174 130q-94 48 -147.5 124t-53.5 167q0 159 133 268t334 109t334 -109t133 -268q0 -91 -53.5 -167t-147.5 -124q112 -48 174 -130t62 -186q0 -164 -137 -273t-365 -109zM563 772q82 0 137.5 50t55.5 124q0 84 -52.5 131
t-140.5 47t-140 -47t-52 -131q0 -74 55 -124t137 -50zM563 201q102 0 162.5 54t60.5 136q0 81 -61 136t-162 55t-162 -55t-61 -136q0 -82 60.5 -136t162.5 -54z" />
    <glyph glyph-name="nine" unicode="9" horiz-adv-x="1159" 
d="M506 -264q-101 0 -184.5 29t-135.5 79q-63 66 -63 150q0 70 45.5 117t116.5 47q66 0 109.5 -44.5t43.5 -105.5q0 -23 -6 -41q42 -10 78 -10q59 0 112.5 28.5t96.5 83t69.5 143.5t28.5 202q-40 -70 -124.5 -116t-188.5 -46q-191 0 -319 117.5t-128 296.5q0 194 142 319
t364 125q227 0 363 -139q159 -159 159 -475q0 -177 -44 -321t-121.5 -240t-183.5 -147.5t-230 -51.5zM733 827q-71 64 -168 64q-102 0 -166.5 -63.5t-64.5 -157.5q0 -90 61.5 -150.5t163.5 -60.5q103 0 171.5 62.5t68.5 156.5q0 86 -66 149z" />
    <glyph glyph-name="colon" unicode=":" horiz-adv-x="567" 
d="M283 528q-73 0 -126 53t-53 126q0 74 53 127t126 53t125.5 -53t52.5 -127t-52.5 -126.5t-125.5 -52.5zM283 -16q-74 0 -126.5 52.5t-52.5 125.5q0 74 53 127t126 53t125.5 -53t52.5 -127t-52.5 -126t-125.5 -52z" />
    <glyph glyph-name="semicolon" unicode=";" horiz-adv-x="567" 
d="M283 528q-73 0 -126 53t-53 126q0 74 53 127t126 53t125.5 -53t52.5 -127t-52.5 -126.5t-125.5 -52.5zM92 -338l-65 96q89 64 144.5 133t61.5 115q-58 18 -93.5 62.5t-35.5 103.5q0 66 52.5 116t124.5 50q78 0 131 -54.5t53 -152.5q0 -116 -89 -238.5t-284 -230.5z" />
    <glyph glyph-name="less" unicode="&#x3c;" horiz-adv-x="866" 
d="M633 121l-537 381v151l537 381l125 -166l-406 -290l406 -291z" />
    <glyph glyph-name="equal" unicode="=" horiz-adv-x="948" 
d="M94 672v209h758v-209h-758zM94 279v208h758v-208h-758z" />
    <glyph glyph-name="greater" unicode="&#x3e;" horiz-adv-x="866" 
d="M233 121l-124 166l405 291l-405 290l124 166l537 -381v-151z" />
    <glyph glyph-name="question" unicode="?" horiz-adv-x="1005" 
d="M39 1055q0 91 65 168q59 70 158 110.5t223 40.5q112 0 202.5 -32t146 -85.5t85 -119.5t29.5 -138q0 -148 -92.5 -249.5t-282.5 -141.5l-20 -176h-184l-43 320q173 23 251 86t78 147q0 74 -49.5 120t-138.5 46q-93 0 -145 -37q36 -36 36 -96q0 -61 -43.5 -100t-109.5 -39
q-74 0 -120 46.5t-46 129.5zM461 -18q-72 0 -121 49t-49 121t49 121t121 49t121 -49t49 -121t-49 -121t-121 -49z" />
    <glyph glyph-name="at" unicode="@" horiz-adv-x="1665" 
d="M944 1149q-208 0 -378.5 -112t-266.5 -303t-96 -419q0 -255 146 -407t378 -152q168 0 330 84l55 -104q-181 -103 -389 -103q-190 0 -339.5 84.5t-233.5 241t-84 360.5q0 195 68.5 371.5t185.5 303.5t279.5 201.5t342.5 74.5q145 0 268 -46.5t208 -128t133 -196t48 -248.5
q0 -163 -51.5 -297.5t-153 -217.5t-235.5 -83q-107 0 -171 47t-75 127q-103 -170 -254 -170q-106 0 -170.5 80t-64.5 219q0 118 48.5 226.5t132 176.5t179.5 68q73 0 127 -41.5t84 -117.5l47 143h226l-119 -481q-30 -129 72 -129q91 0 166 131.5t75 314.5q0 218 -141 360
t-377 142zM770 246q71 0 128.5 75.5t57.5 178.5q0 62 -26 98.5t-76 36.5q-73 0 -129.5 -79t-56.5 -175q0 -62 26 -98.5t76 -36.5z" />
    <glyph glyph-name="A" unicode="A" horiz-adv-x="1470" 
d="M592 0h-567v240h127l301 868h-164v240h893v-240h-166l301 -868h129v-240h-582v240h146l-60 192h-448l-60 -192h150v-240zM727 1114l-162 -473h324z" />
    <glyph glyph-name="B" unicode="B" horiz-adv-x="1271" 
d="M68 0v240h157v868h-157v240h608q238 0 363.5 -98t125.5 -257q0 -112 -61.5 -188t-165.5 -113q268 -77 268 -315q0 -171 -133 -274t-375 -103h-630zM514 238h143q248 0 248 174t-254 174h-137v-348zM514 784h125q110 0 168.5 43t58.5 123q0 160 -233 160h-119v-326z" />
    <glyph glyph-name="C" unicode="C" horiz-adv-x="1419" 
d="M788 -27q-319 0 -516.5 192t-197.5 503q0 200 93 362t257.5 253t368.5 91q120 0 222 -29t169.5 -77t105 -109t37.5 -125q0 -80 -48 -131t-128 -51q-71 0 -118.5 46t-47.5 122q0 32 8 51q-77 43 -202 43q-179 0 -297.5 -123t-118.5 -317q0 -192 119.5 -315t308.5 -123
q204 0 385 167l164 -196q-106 -112 -250 -173t-314 -61z" />
    <glyph glyph-name="D" unicode="D" horiz-adv-x="1466" 
d="M68 0v240h157v868h-157v240h544q369 0 576 -179t207 -483q0 -154 -51 -279.5t-150 -216.5t-253 -140.5t-351 -49.5h-522zM516 240h111q226 0 345.5 117t119.5 327q0 207 -126.5 315.5t-353.5 108.5h-96v-868z" />
    <glyph glyph-name="E" unicode="E" horiz-adv-x="1228" 
d="M68 0v240h157v868h-157v240h1075v-410h-266v170h-361v-315h395v-218h-395v-335h361v178h268v-418h-1077z" />
    <glyph glyph-name="F" unicode="F" horiz-adv-x="1183" 
d="M68 0v240h157v868h-157v240h1058v-410h-268v170h-342v-342h389v-219h-389v-307h180v-240h-628z" />
    <glyph glyph-name="G" unicode="G" horiz-adv-x="1466" 
d="M713 -23q-125 0 -240 48t-204 134t-142 217t-53 286q0 153 53.5 285t148 226t228.5 147.5t289 53.5q120 0 222 -29t169.5 -76.5t105 -108t37.5 -124.5q0 -79 -47.5 -128.5t-128.5 -49.5q-71 0 -118.5 44t-47.5 120q0 23 6 47q-70 45 -198 45q-181 0 -299.5 -123
t-118.5 -321q0 -199 116.5 -321t288.5 -122q157 0 275 90v179h-295v217h577v-713h-266v111q-147 -134 -358 -134z" />
    <glyph glyph-name="H" unicode="H" horiz-adv-x="1579" 
d="M68 0v240h157v868h-157v240h608v-240h-160v-313h547v313h-162v240h610v-240h-157v-868h157v-240h-610v240h162v325h-547v-325h160v-240h-608z" />
    <glyph glyph-name="I" unicode="I" horiz-adv-x="774" 
d="M74 0v240h168v868h-168v240h626v-240h-168v-868h168v-240h-626z" />
    <glyph glyph-name="J" unicode="J" horiz-adv-x="1126" 
d="M475 -27q-193 0 -316.5 100.5t-123.5 241.5q0 87 48.5 140t123.5 53q71 0 116.5 -45t45.5 -109q0 -52 -33 -94q46 -39 137 -39q76 0 117 41q57 57 57 199v647h-196v240h632v-240h-151v-651q0 -240 -125 -365q-122 -119 -332 -119z" />
    <glyph glyph-name="K" unicode="K" horiz-adv-x="1433" 
d="M915 1114h-133v234h615v-240h-144l-350 -332l330 -536h170v-240h-379l-342 584l-166 -162v-182h160v-240h-608v240h157v868h-157v240h594v-234h-146v-389z" />
    <glyph glyph-name="L" unicode="L" horiz-adv-x="1167" 
d="M68 0v240h157v868h-157v240h628v-240h-180v-868h336v209h264v-449h-1048z" />
    <glyph glyph-name="M" unicode="M" horiz-adv-x="1796" 
d="M53 0v240h160l43 868h-168v240h434l377 -682l377 682h430v-240h-168l43 -868h160v-240h-602v240h155l-26 606l-359 -617h-30l-357 617l-26 -606h153v-240h-596z" />
    <glyph glyph-name="N" unicode="N" horiz-adv-x="1560" 
d="M1358 1108v-1110l-189 -2l-671 856v-612h166v-240h-596v240h157v868h-157v240h397l620 -795v555h-170v240h596v-240h-153z" />
    <glyph glyph-name="O" unicode="O" horiz-adv-x="1542" 
d="M768 -27q-153 0 -283.5 54.5t-220 148.5t-140 223t-50.5 275q0 196 87.5 355t248 252t364.5 93q153 0 283.5 -54.5t220 -148t140 -222.5t50.5 -275q0 -196 -87.5 -355.5t-248 -252.5t-364.5 -93zM772 236q171 0 283 123t112 315q0 190 -111.5 314t-283.5 124
q-173 0 -285 -122.5t-112 -315.5q0 -191 112 -314.5t285 -123.5z" />
    <glyph glyph-name="P" unicode="P" horiz-adv-x="1239" 
d="M68 0v240h157v868h-157v240h591q154 0 273.5 -50t189.5 -152.5t70 -244.5q0 -116 -41.5 -204.5t-115.5 -142.5t-170.5 -81t-211.5 -27q-111 0 -137 5v-211h170v-240h-618zM645 674q117 0 181.5 59.5t64.5 165.5q0 95 -68.5 152t-185.5 57h-121v-430q50 -4 129 -4z" />
    <glyph glyph-name="Q" unicode="Q" horiz-adv-x="1542" 
d="M1280 -301q-72 0 -151 26.5t-129.5 55.5t-127.5 78t-106 65q-88 49 -166 68q-95 26 -176 66.5t-162 121.5q-88 88 -138 215.5t-50 278.5q0 196 87.5 355t248 252t364.5 93q153 0 283.5 -54.5t220 -148t140 -222.5t50.5 -275q0 -236 -123 -404.5t-313 -222.5
q50 -20 68 -29q91 -51 160 -51q45 0 86 14.5t96 57.5l145 -215q-117 -125 -307 -125zM772 231q171 0 283 124.5t112 316.5t-111.5 316t-283.5 124q-173 0 -285 -122.5t-112 -317.5q0 -205 123 -328q113 -113 274 -113z" />
    <glyph glyph-name="R" unicode="R" horiz-adv-x="1327" 
d="M68 0v240h157v868h-157v240h577q162 0 283 -44t192.5 -138t71.5 -230q0 -125 -66.5 -219t-179.5 -139l197 -338h153v-240h-354l-264 498q-23 -2 -68 -2q-69 0 -94 2v-258h148v-240h-596zM629 715q119 0 190.5 54t71.5 151q0 92 -69 140t-199 48h-107v-389q50 -4 113 -4z
" />
    <glyph glyph-name="S" unicode="S" horiz-adv-x="1150" 
d="M578 -29q-142 0 -258.5 42.5t-184 118.5t-67.5 169q0 79 47.5 129.5t122.5 50.5q72 0 116.5 -45t44.5 -110q0 -44 -14 -72q75 -43 190 -43q98 0 152.5 39t54.5 108q0 63 -55 105.5t-166 83.5q-95 36 -158 64.5t-122 67t-92 80t-52.5 97t-19.5 125.5q0 171 132.5 282
t346.5 111q201 0 332 -89t131 -210q0 -79 -43 -123.5t-111 -44.5q-71 0 -116.5 45.5t-45.5 108.5q0 32 9 47q-67 31 -158 31t-141 -37t-50 -101q0 -63 60 -104t184 -86q86 -32 146.5 -60t117 -65.5t90.5 -79.5t54 -98t20 -125q0 -187 -135 -299.5t-362 -112.5z" />
    <glyph glyph-name="T" unicode="T" horiz-adv-x="1312" 
d="M340 0v240h170v874h-213v-219h-258v453h1235v-453h-258v219h-215v-874h170v-240h-631z" />
    <glyph glyph-name="U" unicode="U" horiz-adv-x="1462" 
d="M195 1108h-148v240h596v-240h-158v-584q0 -291 250 -291q252 0 252 287v588h-156v240h584v-240h-147v-614q0 -256 -144.5 -388.5t-390.5 -132.5q-162 0 -281.5 55.5t-188 173t-68.5 287.5v619z" />
    <glyph glyph-name="V" unicode="V" horiz-adv-x="1458" 
d="M633 -6l-481 1114h-127v240h593v-240h-149l268 -657l267 657h-150v240h580v-240h-127l-484 -1114h-190z" />
    <glyph glyph-name="W" unicode="W" horiz-adv-x="2076" 
d="M537 -4l-359 1112h-139v240h614v-240h-170l193 -616l295 684h155l297 -684l181 616h-174v240h608v-240h-140l-354 -1112h-180l-324 745l-323 -745h-180z" />
    <glyph glyph-name="X" unicode="X" horiz-adv-x="1468" 
d="M39 0v240h143l383 444l-354 424h-148v240h611v-236h-129l209 -270l211 270h-140v236h588v-240h-147l-353 -416l373 -452h144v-240h-611v236h131l-223 292l-244 -292h142v-236h-586z" />
    <glyph glyph-name="Y" unicode="Y" horiz-adv-x="1382" 
d="M379 0v240h168v276l-387 592h-135v240h577v-240h-127l232 -373l223 373h-127v240h555v-240h-135l-385 -592v-276h168v-240h-627z" />
    <glyph glyph-name="Z" unicode="Z" horiz-adv-x="1288" 
d="M74 0v176l733 934h-436v-217h-262v455h1089v-177l-731 -933h483v219h264v-457h-1140z" />
    <glyph glyph-name="bracketleft" unicode="[" horiz-adv-x="774" 
d="M166 -420v1919h553v-219h-297v-1479h297v-221h-553z" />
    <glyph glyph-name="backslash" unicode="\" horiz-adv-x="1013" 
d="M840 -449l-842 1883l217 96l842 -1880z" />
    <glyph glyph-name="bracketright" unicode="]" horiz-adv-x="774" 
d="M608 -420h-553v221h297v1479h-297v219h553v-1919z" />
    <glyph glyph-name="asciicircum" unicode="^" horiz-adv-x="958" 
d="M219 625l-127 135l387 385l387 -385l-127 -135l-260 188z" />
    <glyph glyph-name="underscore" unicode="_" horiz-adv-x="1142" 
d="M-18 -354v231h1179v-231h-1179z" />
    <glyph glyph-name="grave" unicode="`" horiz-adv-x="501" 
d="M424 1018l-315 211q-76 52 -76 125q0 53 38.5 92t88.5 39q72 0 125 -74l219 -315z" />
    <glyph glyph-name="a" unicode="a" horiz-adv-x="1058" 
d="M651 0v102q-55 -52 -133 -86t-168 -34q-126 0 -208.5 67.5t-82.5 181.5q0 128 105.5 203.5t279.5 75.5q113 0 197 -23v76q0 84 -41 125q-45 45 -145 45q-34 0 -64 -10q2 -8 2 -25q0 -62 -39 -100.5t-102 -38.5q-62 0 -99.5 35.5t-37.5 99.5q0 100 102 170t279 70
q218 0 325 -107q92 -92 92 -249v-363h119v-215h-381zM461 168q101 0 180 61v131q-62 19 -152 19q-68 0 -108.5 -30t-40.5 -83q0 -46 33 -72t88 -26z" />
    <glyph glyph-name="b" unicode="b" horiz-adv-x="1132" 
d="M643 -18q-142 0 -270 102l-45 -86h-205v1284h-121v217h397v-676q114 111 260 111q180 0 297 -134t117 -337q0 -130 -54 -240t-153.5 -175.5t-222.5 -65.5zM578 205q86 0 149.5 67t63.5 189q0 121 -61.5 186.5t-149.5 65.5q-93 0 -181 -74v-375q79 -59 179 -59z" />
    <glyph glyph-name="c" unicode="c" horiz-adv-x="1028" 
d="M575 -18q-227 0 -371.5 131.5t-144.5 349.5q0 94 35.5 180.5t97.5 150.5t152 102t193 38q93 0 173.5 -27t132.5 -71t81.5 -98.5t29.5 -110.5q0 -77 -44.5 -121.5t-114.5 -44.5q-65 0 -107.5 40.5t-42.5 100.5q0 49 29 78q-45 41 -127 41t-146.5 -69t-64.5 -191
q0 -123 79 -191.5t195 -68.5q79 0 153 22.5t163 71.5l-21 -232q-141 -81 -330 -81z" />
    <glyph glyph-name="d" unicode="d" horiz-adv-x="1171" 
d="M559 205q95 0 174 69v379q-85 60 -176 60q-90 0 -152.5 -69.5t-62.5 -188.5t61 -184.5t156 -65.5zM477 -18q-184 0 -301 132.5t-117 336.5q0 130 56.5 240.5t159 176.5t227.5 66q134 0 231 -78v426h-121v217h398v-1284h118v-215h-387v96q-119 -114 -264 -114z" />
    <glyph glyph-name="e" unicode="e" horiz-adv-x="1038" 
d="M975 381h-633q43 -180 274 -180q162 0 322 86l-23 -230q-138 -75 -342 -75q-229 0 -371.5 129.5t-142.5 343.5q0 202 130 340.5t341 138.5q107 0 194 -34.5t143.5 -94.5t87 -140t30.5 -173q0 -59 -10 -111zM535 721q-71 0 -125 -45.5t-70 -138.5h379q-5 86 -52.5 135
t-131.5 49z" />
    <glyph glyph-name="f" unicode="f" horiz-adv-x="718" 
d="M676 1190q-99 0 -141 92q-22 -9 -35 -29q-35 -47 -35 -159v-179h227v-217h-227v-483h162v-215h-557v215h120v483h-143v217h143v156q0 118 28 200.5t91 145.5q106 101 266 101q104 0 171 -52t67 -131q0 -69 -40 -107t-97 -38z" />
    <glyph glyph-name="g" unicode="g" horiz-adv-x="1161" 
d="M999 698v-696q0 -198 -114 -309q-121 -121 -350 -121q-240 0 -349 109q-57 54 -57 131q0 64 40.5 109.5t109.5 45.5q66 0 107.5 -40t41.5 -103q0 -4 -1 -12.5t-1 -12.5q52 -10 86 -10q105 0 158 53t53 174v109q-52 -49 -109.5 -74.5t-136.5 -25.5q-177 0 -297.5 121.5
t-120.5 320.5q0 198 123 332.5t303 134.5q136 0 252 -94v75h381v-217h-119zM553 713q-94 0 -152.5 -63t-58.5 -177q0 -116 59.5 -175.5t151.5 -59.5q91 0 170 69v350q-73 56 -170 56z" />
    <glyph glyph-name="h" unicode="h" horiz-adv-x="1175" 
d="M164 1282h-121v217h397v-719q142 154 305 154q129 0 205 -76q78 -75 78 -219v-424h121v-215h-502v215h107v348q0 72 -35 107q-35 30 -90 30q-96 0 -189 -77v-408h107v-215h-504v215h121v1067z" />
    <glyph glyph-name="i" unicode="i" horiz-adv-x="632" 
d="M305 1042q-74 0 -126 52t-52 125t53 123.5t127 50.5q75 0 126.5 -50.5t51.5 -123.5t-53 -125t-127 -52zM586 0h-523v215h125v483h-125v217h402v-700h121v-215z" />
    <glyph glyph-name="j" unicode="j" horiz-adv-x="610" 
d="M-147 -248q0 61 40.5 104.5t102.5 43.5q57 0 96 -36.5t47 -84.5q15 6 27 18q53 53 53 187v714h-151v217h426v-911q0 -215 -115 -330q-102 -102 -273 -102q-122 0 -187.5 51.5t-65.5 128.5zM324 1042q-74 0 -125.5 52t-51.5 125t53.5 123.5t127.5 50.5q73 0 124.5 -51
t51.5 -123q0 -74 -52.5 -125.5t-127.5 -51.5z" />
    <glyph glyph-name="k" unicode="k" horiz-adv-x="1155" 
d="M43 0v215h121v1067h-121v217h397v-985l244 195h-119v206h543v-217h-156l-190 -151l211 -330h135v-217h-313l-242 401l-113 -92v-100h99v-209h-496z" />
    <glyph glyph-name="l" unicode="l" horiz-adv-x="614" 
d="M43 215h127v1067h-127v217h401v-1284h127v-215h-528v215z" />
    <glyph glyph-name="m" unicode="m" horiz-adv-x="1746" 
d="M63 0v215h119v483h-119v217h388v-143q141 162 305 162q134 0 211 -90q21 -23 37 -64q144 154 307 154q167 0 237 -111q51 -68 51 -182v-426h121v-215h-499v215h104v350q0 58 -20 84q-26 51 -97 51q-82 0 -178 -75v-410h103v-215h-482v215h103v350q0 52 -19 84
q-26 51 -98 51q-82 0 -178 -75v-410h102v-215h-498z" />
    <glyph glyph-name="n" unicode="n" horiz-adv-x="1193" 
d="M451 915v-143q146 162 313 162q131 0 205 -74q80 -80 80 -221v-424h118v-215h-501v215h106v348q0 72 -35 107q-30 30 -88 30q-93 0 -190 -77v-408h106v-215h-502v215h119v483h-119v217h388z" />
    <glyph glyph-name="o" unicode="o" horiz-adv-x="1110" 
d="M555 -18q-150 0 -264.5 65t-173 172t-58.5 238q0 132 59 239.5t173.5 172.5t263.5 65q225 0 360.5 -135.5t135.5 -341.5q0 -97 -35.5 -184t-98.5 -151.5t-157 -102t-205 -37.5zM555 199q95 0 154 70.5t59 187.5q0 120 -59 190t-154 70t-154 -70t-59 -190
q0 -117 59 -187.5t154 -70.5z" />
    <glyph glyph-name="p" unicode="p" horiz-adv-x="1163" 
d="M43 -414v213h119v899h-119v217h381v-100q66 58 126.5 88.5t143.5 30.5q178 0 294 -133.5t116 -337.5q0 -131 -55 -241t-154 -175t-219 -65q-127 0 -238 86v-269h144v-213h-539zM612 205q85 0 147 67t62 189q0 121 -59.5 186.5t-147.5 65.5q-91 0 -176 -74v-377
q81 -57 174 -57z" />
    <glyph glyph-name="q" unicode="q" horiz-adv-x="1132" 
d="M580 -414v215h153v285q-116 -104 -256 -104q-184 0 -301 132t-117 337q0 130 56.5 240.5t159 176.5t227.5 66q140 0 260 -98l43 84h205v-1119h120v-215h-550zM559 205q95 0 174 69v379q-85 60 -176 60q-90 0 -152.5 -69.5t-62.5 -188.5t61 -184.5t156 -65.5z" />
    <glyph glyph-name="r" unicode="r" horiz-adv-x="921" 
d="M723 934q88 0 136 -48.5t48 -121.5q0 -68 -44 -116t-111 -48q-57 0 -97 28.5t-55 69.5q-38 -13 -78 -49.5t-63 -79.5v-354h149v-215h-545v215h119v483h-119v217h388v-176q132 195 272 195z" />
    <glyph glyph-name="s" unicode="s" horiz-adv-x="952" 
d="M862 711q0 -57 -32.5 -92t-86.5 -35q-60 0 -96.5 31t-36.5 85q0 23 2 29q-50 21 -118 21q-62 0 -99 -22t-37 -58q0 -35 39 -57.5t142 -49.5q87 -24 144.5 -47.5t106.5 -57.5t72 -80.5t23 -107.5q0 -139 -108.5 -216t-301.5 -77q-119 0 -212 29t-144 78q-56 56 -56 127
q0 57 36.5 95t95.5 38q56 0 93.5 -34.5t37.5 -94.5q0 -4 -1 -12.5t-1 -12.5q60 -24 149 -24q68 0 106.5 21t38.5 61q0 30 -32 51t-121 45q-101 30 -163.5 54.5t-113 59t-72.5 78.5t-22 105q0 122 102.5 209.5t284.5 87.5q104 0 193 -29.5t137 -77.5q51 -51 51 -120z" />
    <glyph glyph-name="t" unicode="t" horiz-adv-x="761" 
d="M170 256v442h-162v217h162v179l272 108v-287h263v-217h-263v-383q0 -52 25 -77t76 -25q70 0 166 47l-19 -221q-105 -57 -235 -57q-141 0 -213 75q-72 72 -72 199z" />
    <glyph glyph-name="u" unicode="u" horiz-adv-x="1175" 
d="M432 -18q-132 0 -205 73q-77 77 -77 221v422h-117v217h391v-561q0 -71 37 -108q31 -31 88 -31q93 0 188 78v405h-123v217h400v-700h121v-215h-387v143q-145 -161 -316 -161z" />
    <glyph glyph-name="v" unicode="v" horiz-adv-x="1120" 
d="M109 698h-103v217h498v-206h-113l180 -406l185 406h-117v206h475v-217h-102l-346 -704h-209z" />
    <glyph glyph-name="w" unicode="w" horiz-adv-x="1511" 
d="M344 -4l-219 702h-117v217h490v-210h-119l106 -377l201 477h164l197 -477l110 377h-133v210h479v-217h-114l-222 -702h-204l-201 481l-211 -481h-207z" />
    <glyph glyph-name="x" unicode="x" horiz-adv-x="1124" 
d="M29 0v217h110l248 240l-242 241h-100v217h485v-194h-102l150 -152l149 152h-102v194h452v-217h-106l-234 -227l254 -254h107v-217h-488v195h103l-166 165l-166 -165h100v-195h-452z" />
    <glyph glyph-name="y" unicode="y" horiz-adv-x="1097" 
d="M238 -424q-107 0 -169.5 51t-62.5 131q0 67 39.5 110.5t104.5 43.5q52 0 90 -32t51 -77q10 5 24 19q27 27 52 76l59 127l-317 673h-103v217h500v-206h-121l180 -418l183 418h-119v206h465v-217h-103l-385 -819q-64 -131 -114 -186q-105 -117 -254 -117z" />
    <glyph glyph-name="z" unicode="z" horiz-adv-x="983" 
d="M55 0v174l520 541h-280v-154h-217v354h835v-172l-518 -542h316v155h217v-356h-873z" />
    <glyph glyph-name="braceleft" unicode="{" horiz-adv-x="794" 
d="M719 -248v-205q-300 4 -441 97t-141 245q0 88 39.5 150.5t112.5 128.5q47 44 68.5 76t21.5 71q0 51 -52.5 85t-156.5 34h-66v213h66q104 0 156.5 34t52.5 85q0 28 -15 55.5t-27.5 41t-51.5 52.5q-71 67 -109.5 129.5t-38.5 147.5q0 72 32.5 131.5t100 106.5t182 74.5
t267.5 29.5v-205q-176 -11 -249 -50.5t-73 -102.5q0 -35 26.5 -72.5t84.5 -97.5q67 -73 100 -126t33 -114q0 -85 -67 -143t-187 -82q120 -24 187 -82.5t67 -143.5q0 -63 -32.5 -115t-100.5 -124q-58 -60 -84.5 -97.5t-26.5 -72.5q0 -64 73.5 -103.5t248.5 -50.5z" />
    <glyph glyph-name="bar" unicode="|" horiz-adv-x="575" 
d="M172 -420v1919h231v-1919h-231z" />
    <glyph glyph-name="braceright" unicode="}" horiz-adv-x="794" 
d="M76 -453v205q175 11 248 50.5t73 103.5q0 35 -26.5 73t-83.5 97q-68 72 -100.5 124t-32.5 113q0 85 67 145t187 83q-120 23 -187 82.5t-67 144.5q0 60 33 112.5t100 125.5q57 59 83.5 97t26.5 73q0 63 -72.5 102.5t-248.5 50.5v205q153 -2 267 -29.5t181.5 -74.5
t100 -106.5t32.5 -131.5q0 -61 -23 -114.5t-50 -86t-74 -76.5q-39 -39 -51.5 -52.5t-27.5 -41t-15 -55.5q0 -51 52.5 -85t156.5 -34h65v-213h-65q-104 0 -156.5 -34t-52.5 -85q0 -39 21.5 -71t68.5 -76q73 -65 112 -128t39 -151q0 -153 -141 -245.5t-440 -96.5z" />
    <glyph glyph-name="asciitilde" unicode="~" horiz-adv-x="929" 
d="M627 373q-102 0 -189 76q-75 63 -121 63q-37 0 -61 -29.5t-43 -97.5l-162 43q17 152 86.5 239t165.5 87q95 0 184 -74q78 -66 125 -66q37 0 61.5 30t43.5 97l162 -43q-17 -151 -87.5 -238t-164.5 -87z" />
    <glyph glyph-name="uni00A0" unicode="&#xa0;" horiz-adv-x="0" 
 />
    <glyph glyph-name="exclamdown" unicode="&#xa1;" horiz-adv-x="591" 
d="M295 1024q-69 0 -118.5 50.5t-49.5 119.5q0 72 49.5 121t118.5 49q72 0 121 -49t49 -121q0 -70 -49.5 -120t-120.5 -50zM117 0l96 913h164l98 -913h-358z" />
    <glyph glyph-name="cent" unicode="&#xa2;" horiz-adv-x="1118" 
d="M1030 702q0 -73 -42 -115t-107 -42q-59 0 -98.5 39.5t-39.5 95.5q0 44 25 80q-46 29 -98 37l-47 -523h10q174 0 356 95l-16 -222q-150 -84 -359 -84l-24 -282l-174 14l26 287q-172 41 -270 163t-98 294q0 176 126.5 309t325.5 153l19 209l174 -14l-21 -201
q146 -24 239 -111t93 -182zM340 537q0 -78 35.5 -138t101.5 -92l43 486q-83 -25 -131.5 -88.5t-48.5 -167.5z" />
    <glyph glyph-name="sterling" unicode="&#xa3;" horiz-adv-x="1165" 
d="M883 266h-314v-2q0 -110 -57 -219q15 -2 111 -22q11 -3 38 -9.5t41 -10t35 -7.5t38.5 -6t33.5 -2q58 0 92 29t74 104l180 -90q-40 -146 -116.5 -219.5t-207.5 -73.5q-22 0 -44.5 2t-40.5 4t-41 7.5t-36.5 8.5t-38 10.5t-34 10.5t-36.5 12.5t-34 11.5q-90 35 -141 41
q-85 -106 -203 -106q-73 0 -116 39.5t-43 101.5q0 78 70 132.5t192 47.5q37 79 37 168v37h-238v176h199l-11 31q-57 152 -57 246q0 78 28.5 147.5t82 123.5t138.5 86t191 32q169 0 284.5 -82.5t115.5 -208.5q0 -76 -43 -121t-111 -45q-65 0 -106 41.5t-41 102.5q0 34 12 61
q-44 27 -107 27q-86 0 -131 -51.5t-45 -126.5q0 -94 43 -216l17 -47h340v-176z" />
    <glyph glyph-name="yen" unicode="&#xa5;" horiz-adv-x="1173" 
d="M127 510v149h192l-155 226h-127v205h493v-199h-104l164 -268l164 268h-111v199h487v-205h-129l-155 -226h194v-149h-299l-32 -49v-29h331v-151h-331v-82h168v-199h-586v199h168v82h-332v151h332v29l-35 49h-297z" />
    <glyph glyph-name="section" unicode="&#xa7;" horiz-adv-x="1044" 
d="M532 1128q166 0 264.5 -54.5t98.5 -145.5q0 -54 -34 -87.5t-91 -33.5q-56 0 -89.5 29.5t-33.5 78.5q0 17 2 21q-35 18 -119 18q-55 0 -86.5 -14.5t-31.5 -40.5q0 -9 3.5 -17.5t12.5 -16.5t17.5 -14t25 -13.5t28 -12t33 -11.5t33.5 -10.5t37 -11t37 -10.5
q66 -21 105 -35.5t81 -36t64 -43t36.5 -52t14.5 -68.5q0 -66 -45 -116t-125 -77q107 -68 107 -182q0 -109 -100.5 -180.5t-274.5 -71.5q-158 0 -259.5 53.5t-101.5 147.5q0 55 34.5 89t90.5 34q54 0 87.5 -30.5t33.5 -80.5q0 -4 -1 -10.5t-1 -9.5q38 -17 119 -17
q119 0 119 58q0 11 -5.5 20.5t-18.5 18t-26 15t-37 15t-41.5 13.5t-49.5 14.5t-52 15.5q-59 19 -99 34t-81.5 36t-65.5 44t-39.5 54t-15.5 68q0 68 45.5 117.5t130.5 74.5q-112 67 -112 183q0 105 102.5 178t273.5 73zM514 451l86 -25q100 25 100 76q0 16 -10.5 28.5
t-35 23.5t-46.5 19t-63 20q-5 2 -8 2.5t-7 2t-8 2.5q-42 11 -80 23q-108 -26 -108 -76q0 -34 64 -60q22 -8 116 -36z" />
    <glyph glyph-name="dieresis" unicode="&#xa8;" horiz-adv-x="835" 
d="M635 1044q-66 0 -114 48.5t-48 115.5t49 114.5t117 47.5q66 0 114 -47.5t48 -114.5t-49 -115.5t-117 -48.5zM197 1044q-66 0 -114 48.5t-48 115.5t49 114.5t117 47.5q66 0 113.5 -47.5t47.5 -114.5t-48.5 -115.5t-116.5 -48.5z" />
    <glyph glyph-name="copyright" unicode="&#xa9;" horiz-adv-x="1275" 
d="M625 -18q-158 0 -288.5 73t-206 202.5t-75.5 287.5t75.5 288t206 203.5t288.5 73.5q156 0 286.5 -73.5t206.5 -203.5t76 -288q0 -156 -76.5 -286t-207 -203.5t-285.5 -73.5zM625 92q186 0 315 129t129 324t-129 324.5t-315 129.5q-188 0 -316.5 -129.5t-128.5 -324.5
t128.5 -324t316.5 -129zM645 717q-68 0 -113 -46t-45 -118t44 -118t116 -46q80 0 148 68l69 -82q-86 -103 -225 -103q-128 0 -206.5 76t-78.5 203q0 119 82 198.5t205 79.5q100 0 159.5 -43t59.5 -102q0 -35 -21.5 -56.5t-52.5 -21.5q-32 0 -53.5 20.5t-21.5 51.5q0 10 4 22
q-30 17 -70 17z" />
    <glyph glyph-name="ordfeminine" unicode="&#xaa;" horiz-adv-x="817" 
d="M334 877q61 0 119 38v89q-50 12 -101 12q-45 0 -71.5 -19.5t-26.5 -54.5q0 -30 22 -47.5t58 -17.5zM459 768v66q-80 -76 -199 -76q-81 0 -135.5 43.5t-54.5 118.5q0 82 68 131t181 49q72 0 134 -15v48q0 62 -33 88q-30 24 -88 24q-14 0 -56 -6q5 -15 5 -25
q0 -36 -25 -58.5t-63 -22.5t-63.5 24t-25.5 64q0 66 66.5 109.5t185.5 43.5q134 0 201 -55q78 -55 78 -174v-238h80v-139h-256zM88 485v152h627v-152h-627z" />
    <glyph glyph-name="guillemotleft" unicode="&#xab;" horiz-adv-x="1173" 
d="M461 176l-424 406l424 405l149 -149l-248 -256l248 -256zM958 176l-421 406l421 405l150 -149l-244 -256l244 -256z" />
    <glyph glyph-name="registered" unicode="&#xae;" horiz-adv-x="874" 
d="M442 664q-163 0 -277 110.5t-114 274.5t114 274.5t277 110.5q166 0 280 -110t114 -275t-114 -275t-280 -110zM442 1346q-125 0 -211 -84t-86 -215q0 -129 86 -212t211 -83q124 0 210.5 83.5t86.5 211.5q0 131 -86.5 215t-210.5 84zM289 877v73h37v205h-37v74h160
q68 0 109.5 -28t41.5 -81q0 -65 -59 -94l37 -76h36v-73h-100l-57 129h-43v-60h35v-69h-160zM414 1069h35q57 0 57 45q0 43 -60 43h-32v-88z" />
    <glyph glyph-name="macron" unicode="&#xaf;" horiz-adv-x="776" 
d="M35 1085v211h708v-211h-708z" />
    <glyph glyph-name="degree" unicode="&#xb0;" horiz-adv-x="675" 
d="M338 799q-127 0 -212 83t-85 205t85 206.5t212 84.5t212 -84.5t85 -206.5t-85 -205t-212 -83zM338 948q59 0 97 40.5t38 98.5q0 61 -38 101.5t-97 40.5t-97 -40.5t-38 -101.5q0 -58 38 -98.5t97 -40.5z" />
    <glyph glyph-name="plusminus" unicode="&#xb1;" horiz-adv-x="948" 
d="M369 399v271h-275v211h275v270h211v-270h272v-211h-272v-271h-211zM94 43v211h758v-211h-758z" />
    <glyph glyph-name="two.sup" unicode="&#xb2;" 
d="M647 881h-538q-2 0 -27 41l-23 43q25 59 60.5 110t78 91t72.5 63.5t72 52.5q47 32 64.5 45t34 36.5t16.5 49.5q0 41 -28.5 62.5t-78.5 21.5q-31 0 -60 -9t-40 -20q26 -19 26 -59q0 -37 -26.5 -63.5t-67.5 -26.5q-51 0 -75.5 32t-24.5 81q0 86 75 145t203 59
q119 0 194 -62.5t75 -160.5q0 -53 -27.5 -98t-57.5 -68.5t-77 -52.5q-44 -27 -73.5 -46.5t-68.5 -55.5t-65 -74h246v117h141v-254z" />
    <glyph glyph-name="three.sup" unicode="&#xb3;" 
d="M350 866q-131 0 -207.5 49.5t-76.5 128.5q0 43 28 73t70 30t69 -26t27 -64q0 -22 -6 -37q49 -21 94 -21q50 0 85.5 25t35.5 70q0 42 -35.5 71t-118.5 29h-53v123h55q70 0 105 27t35 73q0 39 -31.5 59.5t-77.5 20.5q-36 0 -69 -14q6 -15 6 -35q0 -41 -27.5 -67.5
t-69.5 -26.5q-41 0 -68.5 30t-27.5 74q0 64 69 118t193 54q118 0 195.5 -56.5t77.5 -141.5q0 -63 -42.5 -109t-107.5 -66q66 -14 116 -61t50 -123q0 -94 -83.5 -150.5t-209.5 -56.5z" />
    <glyph glyph-name="acute" unicode="&#xb4;" horiz-adv-x="501" 
d="M78 1018l-80 78l219 315q53 74 125 74q50 0 88.5 -39t38.5 -92q0 -73 -76 -125z" />
    <glyph glyph-name="paragraph" unicode="&#xb6;" horiz-adv-x="1269" 
d="M350 219h154v187q-47 -3 -86 -3q-159 0 -261 90t-102 242q0 140 106 231t263 91h776v-221h-153v-615h153v-221h-850v219zM715 213h121v631h-121v-631z" />
    <glyph glyph-name="periodcentered" unicode="&#xb7;" horiz-adv-x="540" 
d="M270 354q-75 0 -128.5 54t-53.5 129q0 77 53 130.5t129 53.5t129.5 -53.5t53.5 -130.5q0 -75 -54 -129t-129 -54z" />
    <glyph glyph-name="cedilla" unicode="&#xb8;" horiz-adv-x="546" 
d="M287 -455q-76 0 -152.5 22.5t-134.5 59.5l47 84q112 -49 195 -49q38 0 61 14t23 37q0 22 -30 40t-91 18q-6 0 -13 -0.5t-11 -1t-5 -0.5l-55 63l94 211l78 -8l10 -125q113 -18 178.5 -66t65.5 -123q0 -72 -71 -124t-189 -52z" />
    <glyph glyph-name="one.sup" unicode="&#xb9;" 
d="M111 883v149h184v414l-160 -41l-39 143l281 78h90v-594h168v-149h-524z" />
    <glyph glyph-name="ordmasculine" unicode="&#xba;" horiz-adv-x="796" 
d="M397 758q-149 0 -239 88.5t-90 218.5q0 132 90 221.5t239 89.5q150 0 240 -89t90 -222q0 -130 -90 -218.5t-240 -88.5zM397 901q65 0 103.5 45.5t38.5 118.5q0 76 -38 121t-104 45q-63 0 -102 -45.5t-39 -120.5q0 -72 39 -118t102 -46zM698 485h-600v152h600v-152z" />
    <glyph glyph-name="guillemotright" unicode="&#xbb;" horiz-adv-x="1173" 
d="M711 176l-150 150l248 256l-248 256l150 149l426 -405zM213 176l-150 150l246 256l-246 256l150 149l422 -405z" />
    <glyph glyph-name="onequarter" unicode="&#xbc;" horiz-adv-x="1628" 
d="M98 575v150h185v414l-160 -41l-39 143l281 78h90v-594h168v-150h-525zM492 -33l-117 78q23 34 203 302.5t229 342.5q30 50 206.5 331.5t198.5 326.5l117 -78q-14 -21 -107.5 -158.5t-187 -277t-133.5 -199.5q-65 -98 -220 -352t-189 -316zM1151 0v117h131v96h-317l-50 94
l367 465l127 -88l-305 -358h180v106l150 68v-166h108v-127h-108v-88h75v-119h-358z" />
    <glyph glyph-name="onehalf" unicode="&#xbd;" horiz-adv-x="1628" 
d="M88 575v150h184v414l-159 -41l-39 143l280 78h90v-594h168v-150h-524zM463 -33l-117 78q23 34 203 302.5t229 342.5q30 51 207 332t199 326l116 -78q-14 -21 -107.5 -158.5t-187 -277t-133.5 -199.5q-65 -98 -220 -352t-189 -316zM1550 -4h-538q-2 0 -27 41l-22 43
q25 59 60 110t77.5 91t72.5 63.5t72 52.5q47 32 64.5 45t34 36.5t16.5 49.5q0 41 -28.5 62.5t-78.5 21.5q-31 0 -60 -8.5t-40 -19.5q27 -19 27 -60q0 -37 -27 -63.5t-68 -26.5q-51 0 -75.5 32t-24.5 81q0 86 75.5 145.5t203.5 59.5q118 0 193 -63t75 -161q0 -53 -27.5 -98
t-57.5 -68.5t-77 -52.5q-44 -27 -73.5 -46.5t-68.5 -55.5t-65 -74h246v117h141v-254z" />
    <glyph glyph-name="threequarters" unicode="&#xbe;" horiz-adv-x="1628" 
d="M369 559q-131 0 -208 49.5t-77 128.5q0 43 28 73t70 30t69.5 -26.5t27.5 -63.5q0 -20 -7 -37q49 -21 95 -21q51 0 85.5 24.5t34.5 69.5q0 42 -35 71.5t-118 29.5h-53v123h55q70 0 104.5 27t34.5 73q0 39 -31 59.5t-77 20.5q-37 0 -70 -14q6 -15 6 -35q0 -41 -27.5 -67.5
t-68.5 -26.5t-68.5 30t-27.5 74q0 64 69 118t193 54q118 0 195 -57t77 -142q0 -63 -42 -108.5t-107 -65.5q66 -14 116 -61t50 -123q0 -94 -83.5 -150.5t-209.5 -56.5zM498 -33l-117 78q23 34 203 302.5t229 342.5q30 51 207 332t199 326l116 -78q-14 -21 -107.5 -158.5
t-187 -277t-133.5 -199.5q-65 -98 -220 -352t-189 -316zM1153 0v117h131v96h-317l-49 94l366 465l127 -88l-305 -358h180v106l150 68v-166h108v-127h-108v-88h75v-119h-358z" />
    <glyph glyph-name="questiondown" unicode="&#xbf;" horiz-adv-x="1005" 
d="M967 299q0 -92 -66 -170q-59 -70 -158 -111t-223 -41q-112 0 -202.5 32t-146 86t-85 120t-29.5 137q0 149 92.5 251.5t282.5 139.5l21 179h184l41 -322q-172 -23 -251 -86.5t-79 -146.5q0 -74 51 -120t140 -46q91 0 143 37q-35 41 -35 98q0 60 43 99.5t109 39.5
q73 0 120.5 -48t47.5 -128zM545 1370q69 0 118.5 -49.5t49.5 -118.5q0 -72 -49.5 -122t-118.5 -50q-72 0 -121 50t-49 122q0 70 49.5 119t120.5 49z" />
    <glyph glyph-name="Agrave" unicode="&#xc0;" horiz-adv-x="1470" 
d="M592 0h-567v240h127l301 868h-164v240h893v-240h-166l301 -868h129v-240h-582v240h146l-60 192h-448l-60 -192h150v-240zM727 1114l-162 -473h324zM766 1466l-315 211q-76 52 -76 125q0 53 38.5 92t88.5 39q73 0 125 -73l219 -316z" />
    <glyph glyph-name="Aacute" unicode="&#xc1;" horiz-adv-x="1470" 
d="M592 0h-567v240h127l301 868h-164v240h893v-240h-166l301 -868h129v-240h-582v240h146l-60 192h-448l-60 -192h150v-240zM727 1114l-162 -473h324zM707 1466l-80 78l219 316q52 73 125 73q50 0 88.5 -39t38.5 -92q0 -73 -76 -125z" />
    <glyph glyph-name="Acircumflex" unicode="&#xc2;" horiz-adv-x="1470" 
d="M592 0h-567v240h127l301 868h-164v240h893v-240h-166l301 -868h129v-240h-582v240h146l-60 192h-448l-60 -192h150v-240zM727 1114l-162 -473h324zM463 1470l-109 125l381 367l379 -367l-108 -125l-271 193z" />
    <glyph glyph-name="Atilde" unicode="&#xc3;" horiz-adv-x="1470" 
d="M592 0h-567v240h127l301 868h-164v240h893v-240h-166l301 -868h129v-240h-582v240h146l-60 192h-448l-60 -192h150v-240zM727 1114l-162 -473h324zM905 1491q-99 0 -188 74q-74 65 -121 65q-69 0 -104 -127l-162 43q17 151 86.5 237.5t165.5 86.5q97 0 184 -72
q79 -67 125 -67q36 0 60.5 30.5t43.5 98.5l162 -43q-17 -151 -87.5 -238.5t-164.5 -87.5z" />
    <glyph glyph-name="Adieresis" unicode="&#xc4;" horiz-adv-x="1470" 
d="M592 0h-567v240h127l301 868h-164v240h893v-240h-166l301 -868h129v-240h-582v240h146l-60 192h-448l-60 -192h150v-240zM727 1114l-162 -473h324zM952 1493q-66 0 -113.5 48.5t-47.5 115.5t48.5 114.5t116.5 47.5q66 0 114 -47.5t48 -114.5t-49 -115.5t-117 -48.5z
M514 1493q-66 0 -114 48.5t-48 115.5t49 114.5t117 47.5q66 0 114 -47.5t48 -114.5t-49 -115.5t-117 -48.5z" />
    <glyph glyph-name="Aring" unicode="&#xc5;" horiz-adv-x="1470" 
d="M1028 1505q0 -90 -61 -157h215v-240h-166l301 -868h129v-240h-582v240h146l-60 192h-446l-62 -192h150v-240h-567v240h127l301 868h-164v240h217q-66 73 -66 157q0 110 84 186t211 76t210 -76t83 -186zM565 641h324l-162 473zM735 1370q49 0 80 35t31 86t-31 86t-80 35
q-50 0 -81 -35t-31 -86t31 -86t81 -35z" />
    <glyph glyph-name="AE" unicode="&#xc6;" horiz-adv-x="1925" 
d="M4 0v240h154l432 868h-174v240h1423v-410h-268v170h-361v-315h398v-218h-398v-335h363v178h266v-418h-1065v240h150v188h-394l-92 -188h137v-240h-571zM635 641h289v475h-62z" />
    <glyph glyph-name="Ccedilla" unicode="&#xc7;" horiz-adv-x="1419" 
d="M788 -27h-2l7 -63q113 -18 178 -66t65 -123q0 -72 -71 -124t-189 -52q-76 0 -152.5 22.5t-134.5 59.5l48 84q112 -49 194 -49q38 0 61 14t23 37q0 22 -30 40t-91 18q-6 0 -12.5 -0.5t-10.5 -1t-5 -0.5l-56 63l66 150q-274 32 -438 217t-164 469q0 200 93 362t257.5 253
t368.5 91q120 0 222 -29t169.5 -77t105 -109t37.5 -125q0 -80 -48 -131t-128 -51q-71 0 -118.5 46t-47.5 122q0 32 8 51q-77 43 -202 43q-179 0 -297.5 -123t-118.5 -317q0 -192 119.5 -315t308.5 -123q204 0 385 167l164 -196q-106 -112 -250 -173t-314 -61z" />
    <glyph glyph-name="Egrave" unicode="&#xc8;" horiz-adv-x="1228" 
d="M68 0v240h157v868h-157v240h1075v-410h-266v170h-361v-315h395v-218h-395v-335h361v178h268v-418h-1077zM659 1456l-315 211q-76 52 -76 125q0 53 38.5 92t88.5 39q72 0 125 -74l219 -315z" />
    <glyph glyph-name="Eacute" unicode="&#xc9;" horiz-adv-x="1228" 
d="M68 0v240h157v868h-157v240h1075v-410h-266v170h-361v-315h395v-218h-395v-335h361v178h268v-418h-1077zM600 1456l-80 78l219 315q53 74 125 74q50 0 88.5 -39t38.5 -92q0 -73 -76 -125z" />
    <glyph glyph-name="Ecircumflex" unicode="&#xca;" horiz-adv-x="1228" 
d="M68 0v240h157v868h-157v240h1075v-410h-266v170h-361v-315h395v-218h-395v-335h361v178h268v-418h-1077zM356 1460l-108 125l381 367l379 -367l-109 -125l-270 193z" />
    <glyph glyph-name="Edieresis" unicode="&#xcb;" horiz-adv-x="1228" 
d="M68 0v240h157v868h-157v240h1075v-410h-266v170h-361v-315h395v-218h-395v-335h361v178h268v-418h-1077zM846 1483q-66 0 -114 48.5t-48 115.5t49 114t117 47q66 0 114 -47t48 -114t-49 -115.5t-117 -48.5zM408 1483q-66 0 -114 48.5t-48 115.5t49 114t117 47
q66 0 113.5 -47t47.5 -114t-48.5 -115.5t-116.5 -48.5z" />
    <glyph glyph-name="Igrave" unicode="&#xcc;" horiz-adv-x="774" 
d="M74 0v240h168v868h-168v240h626v-240h-168v-868h168v-240h-626zM418 1456l-316 211q-75 51 -75 125q0 53 38.5 92t88.5 39q72 0 125 -74l219 -315z" />
    <glyph glyph-name="Iacute" unicode="&#xcd;" horiz-adv-x="774" 
d="M74 0v240h168v868h-168v240h626v-240h-168v-868h168v-240h-626zM358 1456l-79 78l219 315q53 74 125 74q50 0 88.5 -39t38.5 -92q0 -73 -76 -125z" />
    <glyph glyph-name="Icircumflex" unicode="&#xce;" horiz-adv-x="774" 
d="M74 0v240h168v868h-168v240h626v-240h-168v-868h168v-240h-626zM115 1460l-109 125l381 367l379 -367l-109 -125l-270 193z" />
    <glyph glyph-name="Idieresis" unicode="&#xcf;" horiz-adv-x="774" 
d="M74 0v240h168v868h-168v240h626v-240h-168v-868h168v-240h-626zM604 1483q-66 0 -114 48.5t-48 115.5t49 114t117 47q66 0 114 -47t48 -114t-49 -115.5t-117 -48.5zM166 1483q-66 0 -114 48.5t-48 115.5t49 114t117 47q66 0 114 -47t48 -114t-49 -115.5t-117 -48.5z" />
    <glyph glyph-name="Eth" unicode="&#xd0;" horiz-adv-x="1480" 
d="M238 592h-170v186h170v330h-156v240h545q363 0 571.5 -180t208.5 -482q0 -314 -204.5 -500t-586.5 -186h-534v240h156v352zM528 240h113q226 0 345.5 117t119.5 327q0 207 -127 315.5t-352 108.5h-99v-330h250v-186h-250v-352z" />
    <glyph glyph-name="Ntilde" unicode="&#xd1;" horiz-adv-x="1560" 
d="M1358 1108v-1110l-189 -2l-671 856v-612h166v-240h-596v240h157v868h-157v240h397l620 -795v555h-170v240h596v-240h-153zM950 1481q-100 0 -188 73q-75 66 -121 66q-69 0 -104 -127l-162 43q17 151 86.5 237.5t165.5 86.5q97 0 184 -72q81 -68 125 -68q36 0 60.5 30.5
t43.5 98.5l162 -43q-17 -151 -87.5 -238t-164.5 -87z" />
    <glyph glyph-name="Ograve" unicode="&#xd2;" horiz-adv-x="1542" 
d="M768 -27q-153 0 -283.5 54.5t-220 148.5t-140 223t-50.5 275q0 196 87.5 355t248 252t364.5 93q153 0 283.5 -54.5t220 -148t140 -222.5t50.5 -275q0 -196 -87.5 -355.5t-248 -252.5t-364.5 -93zM772 236q171 0 283 123t112 315q0 190 -111.5 314t-283.5 124
q-173 0 -285 -122.5t-112 -315.5q0 -191 112 -314.5t285 -123.5zM801 1466l-316 211q-75 51 -75 125q0 53 38.5 92t88.5 39q73 0 125 -73l219 -316z" />
    <glyph glyph-name="Oacute" unicode="&#xd3;" horiz-adv-x="1542" 
d="M768 -27q-153 0 -283.5 54.5t-220 148.5t-140 223t-50.5 275q0 196 87.5 355t248 252t364.5 93q153 0 283.5 -54.5t220 -148t140 -222.5t50.5 -275q0 -196 -87.5 -355.5t-248 -252.5t-364.5 -93zM772 236q171 0 283 123t112 315q0 190 -111.5 314t-283.5 124
q-173 0 -285 -122.5t-112 -315.5q0 -191 112 -314.5t285 -123.5zM741 1466l-79 78l219 316q52 73 125 73q50 0 88.5 -39t38.5 -92q0 -73 -76 -125z" />
    <glyph glyph-name="Ocircumflex" unicode="&#xd4;" horiz-adv-x="1542" 
d="M768 -27q-153 0 -283.5 54.5t-220 148.5t-140 223t-50.5 275q0 196 87.5 355t248 252t364.5 93q153 0 283.5 -54.5t220 -148t140 -222.5t50.5 -275q0 -196 -87.5 -355.5t-248 -252.5t-364.5 -93zM772 236q171 0 283 123t112 315q0 190 -111.5 314t-283.5 124
q-173 0 -285 -122.5t-112 -315.5q0 -191 112 -314.5t285 -123.5zM498 1470l-109 125l381 367l379 -367l-109 -125l-270 193z" />
    <glyph glyph-name="Otilde" unicode="&#xd5;" horiz-adv-x="1542" 
d="M768 -27q-153 0 -283.5 54.5t-220 148.5t-140 223t-50.5 275q0 196 87.5 355t248 252t364.5 93q153 0 283.5 -54.5t220 -148t140 -222.5t50.5 -275q0 -196 -87.5 -355.5t-248 -252.5t-364.5 -93zM772 236q171 0 283 123t112 315q0 190 -111.5 314t-283.5 124
q-173 0 -285 -122.5t-112 -315.5q0 -191 112 -314.5t285 -123.5zM942 1491q-99 0 -188 74q-74 65 -121 65q-70 0 -105 -127l-161 43q17 151 86 237.5t165 86.5q98 0 185 -72q79 -67 125 -67q36 0 60.5 30.5t43.5 98.5l162 -43q-17 -151 -87.5 -238.5t-164.5 -87.5z" />
    <glyph glyph-name="Odieresis" unicode="&#xd6;" horiz-adv-x="1542" 
d="M768 -27q-153 0 -283.5 54.5t-220 148.5t-140 223t-50.5 275q0 196 87.5 355t248 252t364.5 93q153 0 283.5 -54.5t220 -148t140 -222.5t50.5 -275q0 -196 -87.5 -355.5t-248 -252.5t-364.5 -93zM772 236q171 0 283 123t112 315q0 190 -111.5 314t-283.5 124
q-173 0 -285 -122.5t-112 -315.5q0 -191 112 -314.5t285 -123.5zM987 1493q-66 0 -114 48.5t-48 115.5t49 114.5t117 47.5q66 0 114 -47.5t48 -114.5t-49 -115.5t-117 -48.5zM549 1493q-66 0 -114 48.5t-48 115.5t49 114.5t117 47.5q66 0 114 -47.5t48 -114.5t-49 -115.5
t-117 -48.5z" />
    <glyph glyph-name="multiply" unicode="&#xd7;" horiz-adv-x="948" 
d="M690 195l-217 231l-215 -231l-149 153l213 225l-213 226l149 151l215 -231l217 231l150 -151l-215 -226l215 -225z" />
    <glyph glyph-name="Oslash" unicode="&#xd8;" horiz-adv-x="1542" 
d="M231 -100l-149 133l158 178q-166 193 -166 463q0 196 87.5 355t248 252t364.5 93q221 0 393 -117l158 185l150 -131l-162 -187q155 -195 155 -450q0 -196 -87.5 -355.5t-248 -252.5t-364.5 -93q-214 0 -381 107zM375 674q0 -159 67 -266l555 639q-95 65 -225 65
q-173 0 -285 -122.5t-112 -315.5zM772 236q171 0 283 123t112 315q0 146 -57 248l-551 -631q88 -55 213 -55z" />
    <glyph glyph-name="Ugrave" unicode="&#xd9;" horiz-adv-x="1462" 
d="M195 1108h-148v240h596v-240h-158v-584q0 -291 250 -291q252 0 252 287v588h-156v240h584v-240h-147v-614q0 -256 -144.5 -388.5t-390.5 -132.5q-162 0 -281.5 55.5t-188 173t-68.5 287.5v619zM768 1456l-315 211q-76 52 -76 125q0 53 38.5 92t88.5 39q72 0 125 -74
l219 -315z" />
    <glyph glyph-name="Uacute" unicode="&#xda;" horiz-adv-x="1462" 
d="M195 1108h-148v240h596v-240h-158v-584q0 -291 250 -291q252 0 252 287v588h-156v240h584v-240h-147v-614q0 -256 -144.5 -388.5t-390.5 -132.5q-162 0 -281.5 55.5t-188 173t-68.5 287.5v619zM709 1456l-80 78l219 315q53 74 125 74q50 0 88.5 -39t38.5 -92
q0 -73 -76 -125z" />
    <glyph glyph-name="Ucircumflex" unicode="&#xdb;" horiz-adv-x="1462" 
d="M195 1108h-148v240h596v-240h-158v-584q0 -291 250 -291q252 0 252 287v588h-156v240h584v-240h-147v-614q0 -256 -144.5 -388.5t-390.5 -132.5q-162 0 -281.5 55.5t-188 173t-68.5 287.5v619zM465 1460l-109 125l381 367l379 -367l-108 -125l-271 193z" />
    <glyph glyph-name="Udieresis" unicode="&#xdc;" horiz-adv-x="1462" 
d="M195 1108h-148v240h596v-240h-158v-584q0 -291 250 -291q252 0 252 287v588h-156v240h584v-240h-147v-614q0 -256 -144.5 -388.5t-390.5 -132.5q-162 0 -281.5 55.5t-188 173t-68.5 287.5v619zM952 1483q-66 0 -113.5 48.5t-47.5 115.5t48.5 114t116.5 47q66 0 114 -47
t48 -114t-49 -115.5t-117 -48.5zM514 1483q-66 0 -114 48.5t-48 115.5t49 114t117 47q66 0 114 -47t48 -114t-49 -115.5t-117 -48.5z" />
    <glyph glyph-name="Yacute" unicode="&#xdd;" horiz-adv-x="1382" 
d="M379 0v240h168v276l-387 592h-135v240h577v-240h-127l232 -373l223 373h-127v240h555v-240h-135l-385 -592v-276h168v-240h-627zM670 1456l-80 78l219 315q53 74 125 74q50 0 88.5 -39t38.5 -92q0 -73 -76 -125z" />
    <glyph glyph-name="Thorn" unicode="&#xde;" horiz-adv-x="1247" 
d="M68 0v240h157v868h-157v240h624v-226h-180v-104q70 4 203 4q105 0 190 -18.5t151.5 -57.5t103 -105t36.5 -155q0 -76 -25 -136t-68 -100t-105 -66.5t-133.5 -38t-155.5 -11.5q-131 0 -197 4v-113h180v-225h-624zM709 541q81 0 134.5 34.5t53.5 104.5q0 71 -53 103
t-135 32q-137 0 -199 -4v-266q62 -4 199 -4z" />
    <glyph glyph-name="germandbls" unicode="&#xdf;" horiz-adv-x="1269" 
d="M883 -18q-86 0 -151.5 21.5t-102 56t-54.5 72.5t-18 77q0 58 37 96.5t96 38.5q53 0 92 -33.5t39 -85.5q0 -20 -10 -49q19 -8 53 -8q52 0 83.5 28t31.5 83q0 18 -4 34t-16 32t-21 27t-31.5 28t-33 24.5t-41 28t-41.5 28.5q-43 26 -73 49t-60.5 55t-46 72.5t-15.5 87.5
q0 45 19.5 91.5t35.5 68.5t54 68q83 90 83 168q0 63 -42 106t-117 43q-89 0 -135 -82q-33 -50 -33 -147v-1061h-395v215h120v483h-143v217h143v115q0 196 90 322q122 166 365 166q188 0 304 -99.5t116 -247.5q0 -54 -20.5 -104.5t-41 -77t-57.5 -65.5q-44 -48 -66 -82.5
t-22 -69.5q0 -8 2 -16t6.5 -16t9 -14.5t14 -15t16.5 -14.5t20.5 -16t22.5 -16.5t26 -18.5t28 -20q56 -35 93.5 -63.5t74.5 -68.5t55.5 -89t18.5 -107q0 -149 -100 -232t-258 -83z" />
    <glyph glyph-name="agrave" unicode="&#xe0;" horiz-adv-x="1058" 
d="M651 0v102q-55 -52 -133 -86t-168 -34q-126 0 -208.5 67.5t-82.5 181.5q0 128 105.5 203.5t279.5 75.5q113 0 197 -23v76q0 84 -41 125q-45 45 -145 45q-34 0 -64 -10q2 -8 2 -25q0 -62 -39 -100.5t-102 -38.5q-62 0 -99.5 35.5t-37.5 99.5q0 100 102 170t279 70
q218 0 325 -107q92 -92 92 -249v-363h119v-215h-381zM461 168q101 0 180 61v131q-62 19 -152 19q-68 0 -108.5 -30t-40.5 -83q0 -46 33 -72t88 -26zM553 1018l-315 211q-76 52 -76 125q0 53 38.5 92t88.5 39q72 0 125 -74l219 -315z" />
    <glyph glyph-name="aacute" unicode="&#xe1;" horiz-adv-x="1058" 
d="M651 0v102q-55 -52 -133 -86t-168 -34q-126 0 -208.5 67.5t-82.5 181.5q0 128 105.5 203.5t279.5 75.5q113 0 197 -23v76q0 84 -41 125q-45 45 -145 45q-34 0 -64 -10q2 -8 2 -25q0 -62 -39 -100.5t-102 -38.5q-62 0 -99.5 35.5t-37.5 99.5q0 100 102 170t279 70
q218 0 325 -107q92 -92 92 -249v-363h119v-215h-381zM461 168q101 0 180 61v131q-62 19 -152 19q-68 0 -108.5 -30t-40.5 -83q0 -46 33 -72t88 -26zM494 1018l-80 78l219 315q53 74 125 74q50 0 88.5 -39t38.5 -92q0 -73 -76 -125z" />
    <glyph glyph-name="acircumflex" unicode="&#xe2;" horiz-adv-x="1058" 
d="M651 0v102q-55 -52 -133 -86t-168 -34q-126 0 -208.5 67.5t-82.5 181.5q0 128 105.5 203.5t279.5 75.5q113 0 197 -23v76q0 84 -41 125q-45 45 -145 45q-34 0 -64 -10q2 -8 2 -25q0 -62 -39 -100.5t-102 -38.5q-62 0 -99.5 35.5t-37.5 99.5q0 100 102 170t279 70
q218 0 325 -107q92 -92 92 -249v-363h119v-215h-381zM461 168q101 0 180 61v131q-62 19 -152 19q-68 0 -108.5 -30t-40.5 -83q0 -46 33 -72t88 -26zM250 1022l-109 125l381 366l379 -366l-108 -125l-271 192z" />
    <glyph glyph-name="atilde" unicode="&#xe3;" horiz-adv-x="1058" 
d="M651 0v102q-55 -52 -133 -86t-168 -34q-126 0 -208.5 67.5t-82.5 181.5q0 128 105.5 203.5t279.5 75.5q113 0 197 -23v76q0 84 -41 125q-45 45 -145 45q-34 0 -64 -10q2 -8 2 -25q0 -62 -39 -100.5t-102 -38.5q-62 0 -99.5 35.5t-37.5 99.5q0 100 102 170t279 70
q218 0 325 -107q92 -92 92 -249v-363h119v-215h-381zM461 168q101 0 180 61v131q-62 19 -152 19q-68 0 -108.5 -30t-40.5 -83q0 -46 33 -72t88 -26zM694 1042q-99 0 -188 74q-75 66 -121 66q-69 0 -104 -127l-162 43q17 151 86.5 237t165.5 86q98 0 184 -71q81 -68 125 -68
q36 0 60.5 30.5t43.5 98.5l162 -43q-17 -151 -87.5 -238.5t-164.5 -87.5z" />
    <glyph glyph-name="adieresis" unicode="&#xe4;" horiz-adv-x="1058" 
d="M651 0v102q-55 -52 -133 -86t-168 -34q-126 0 -208.5 67.5t-82.5 181.5q0 128 105.5 203.5t279.5 75.5q113 0 197 -23v76q0 84 -41 125q-45 45 -145 45q-34 0 -64 -10q2 -8 2 -25q0 -62 -39 -100.5t-102 -38.5q-62 0 -99.5 35.5t-37.5 99.5q0 100 102 170t279 70
q218 0 325 -107q92 -92 92 -249v-363h119v-215h-381zM461 168q101 0 180 61v131q-62 19 -152 19q-68 0 -108.5 -30t-40.5 -83q0 -46 33 -72t88 -26zM739 1044q-66 0 -113.5 48.5t-47.5 115.5t48.5 114.5t116.5 47.5q66 0 114 -47.5t48 -114.5t-49 -115.5t-117 -48.5z
M301 1044q-66 0 -114 48.5t-48 115.5t49 114.5t117 47.5q66 0 114 -47.5t48 -114.5t-49 -115.5t-117 -48.5z" />
    <glyph glyph-name="aring" unicode="&#xe5;" horiz-adv-x="1058" 
d="M651 0v102q-55 -52 -133 -86t-168 -34q-126 0 -208.5 67.5t-82.5 181.5q0 128 105.5 203.5t279.5 75.5q113 0 197 -23v76q0 84 -41 125q-45 45 -145 45q-34 0 -64 -10q2 -8 2 -25q0 -62 -39 -100.5t-102 -38.5q-62 0 -99.5 35.5t-37.5 99.5q0 100 102 170t279 70
q218 0 325 -107q92 -92 92 -249v-363h119v-215h-381zM461 168q101 0 180 61v131q-62 19 -152 19q-68 0 -108.5 -30t-40.5 -83q0 -46 33 -72t88 -26zM522 1010q-128 0 -210.5 79t-82.5 197t82.5 197.5t210.5 79.5t210.5 -79.5t82.5 -197.5t-82.5 -197t-210.5 -79zM522 1165
q49 0 81 35.5t32 85.5t-32 85.5t-81 35.5t-80.5 -35.5t-31.5 -85.5t31.5 -85.5t80.5 -35.5z" />
    <glyph glyph-name="ae" unicode="&#xe6;" horiz-adv-x="1603" 
d="M463 733q-34 0 -72 -10q2 -6 2 -25q0 -62 -38.5 -100.5t-100.5 -38.5t-100.5 35.5t-38.5 99.5q0 100 96.5 170t261.5 70q196 0 291 -109q3 -6 12 -16t12 -18q57 69 141.5 106t184.5 37q199 0 316.5 -125.5t117.5 -316.5q0 -59 -10 -111h-633q45 -180 277 -180
q161 0 321 86l-22 -228q-139 -77 -330 -77q-133 0 -238 44.5t-172 125.5q-78 -79 -181.5 -124.5t-203.5 -45.5q-127 0 -212 67.5t-85 181.5q0 127 109 203t287 76q78 0 186 -23v76q0 84 -33 117q-45 53 -145 53zM461 168q110 0 213 94q-21 49 -29 103q-68 14 -137 14
q-79 0 -123.5 -29.5t-44.5 -83.5q0 -46 33 -72t88 -26zM1098 721q-68 0 -122.5 -45.5t-72.5 -138.5h381q-5 86 -53 135t-133 49z" />
    <glyph glyph-name="ccedilla" unicode="&#xe7;" horiz-adv-x="1028" 
d="M553 -455q-76 0 -152.5 22.5t-134.5 59.5l47 84q112 -49 195 -49q38 0 61 14t23 37q0 22 -30 40t-91 18q-6 0 -13 -0.5t-11 -1t-5 -0.5l-55 63l72 160q-182 33 -291 157.5t-109 313.5q0 94 35.5 180.5t97.5 150.5t152 102t193 38q93 0 173.5 -27t132.5 -71t81.5 -98.5
t29.5 -110.5q0 -77 -44.5 -121.5t-114.5 -44.5q-65 0 -107.5 40.5t-42.5 100.5q0 49 29 78q-45 41 -127 41t-146.5 -69t-64.5 -191q0 -123 79 -191.5t195 -68.5q79 0 153 22.5t163 71.5l-21 -232q-141 -81 -330 -81h-12l6 -72q113 -18 178.5 -66t65.5 -123q0 -72 -71 -124
t-189 -52z" />
    <glyph glyph-name="egrave" unicode="&#xe8;" horiz-adv-x="1038" 
d="M975 381h-633q43 -180 274 -180q162 0 322 86l-23 -230q-138 -75 -342 -75q-229 0 -371.5 129.5t-142.5 343.5q0 202 130 340.5t341 138.5q107 0 194 -34.5t143.5 -94.5t87 -140t30.5 -173q0 -59 -10 -111zM535 721q-71 0 -125 -45.5t-70 -138.5h379q-5 86 -52.5 135
t-131.5 49zM569 1018l-315 211q-76 52 -76 125q0 53 38.5 92t88.5 39q72 0 125 -74l219 -315z" />
    <glyph glyph-name="eacute" unicode="&#xe9;" horiz-adv-x="1038" 
d="M975 381h-633q43 -180 274 -180q162 0 322 86l-23 -230q-138 -75 -342 -75q-229 0 -371.5 129.5t-142.5 343.5q0 202 130 340.5t341 138.5q107 0 194 -34.5t143.5 -94.5t87 -140t30.5 -173q0 -59 -10 -111zM535 721q-71 0 -125 -45.5t-70 -138.5h379q-5 86 -52.5 135
t-131.5 49zM510 1018l-80 78l219 315q53 74 125 74q50 0 88.5 -39t38.5 -92q0 -73 -76 -125z" />
    <glyph glyph-name="ecircumflex" unicode="&#xea;" horiz-adv-x="1038" 
d="M975 381h-633q43 -180 274 -180q162 0 322 86l-23 -230q-138 -75 -342 -75q-229 0 -371.5 129.5t-142.5 343.5q0 202 130 340.5t341 138.5q107 0 194 -34.5t143.5 -94.5t87 -140t30.5 -173q0 -59 -10 -111zM535 721q-71 0 -125 -45.5t-70 -138.5h379q-5 86 -52.5 135
t-131.5 49zM266 1022l-108 125l381 366l379 -366l-109 -125l-270 192z" />
    <glyph glyph-name="edieresis" unicode="&#xeb;" horiz-adv-x="1038" 
d="M975 381h-633q43 -180 274 -180q162 0 322 86l-23 -230q-138 -75 -342 -75q-229 0 -371.5 129.5t-142.5 343.5q0 202 130 340.5t341 138.5q107 0 194 -34.5t143.5 -94.5t87 -140t30.5 -173q0 -59 -10 -111zM535 721q-71 0 -125 -45.5t-70 -138.5h379q-5 86 -52.5 135
t-131.5 49zM756 1044q-66 0 -114 48.5t-48 115.5t49 114.5t117 47.5q66 0 114 -47.5t48 -114.5t-49 -115.5t-117 -48.5zM317 1044q-66 0 -113.5 48.5t-47.5 115.5t49 114.5t117 47.5q66 0 113.5 -47.5t47.5 -114.5t-49 -115.5t-117 -48.5z" />
    <glyph glyph-name="igrave" unicode="&#xec;" horiz-adv-x="632" 
d="M63 0v215h125v483h-125v217h402v-700h121v-215h-523zM336 1018l-316 211q-75 51 -75 125q0 53 38.5 92t88.5 39q72 0 125 -74l219 -315z" />
    <glyph glyph-name="iacute" unicode="&#xed;" horiz-adv-x="632" 
d="M63 0v215h125v483h-125v217h402v-700h121v-215h-523zM276 1018l-79 78l219 315q53 74 125 74q50 0 88.5 -39t38.5 -92q0 -73 -76 -125z" />
    <glyph glyph-name="icircumflex" unicode="&#xee;" horiz-adv-x="632" 
d="M63 0v215h125v483h-125v217h402v-700h121v-215h-523zM33 1022l-109 125l381 366l379 -366l-109 -125l-270 192z" />
    <glyph glyph-name="idieresis" unicode="&#xef;" horiz-adv-x="632" 
d="M63 0v215h125v483h-125v217h402v-700h121v-215h-523zM522 1044q-66 0 -114 48.5t-48 115.5t49 114.5t117 47.5q66 0 114 -47.5t48 -114.5t-49 -115.5t-117 -48.5zM84 1044q-66 0 -114 48.5t-48 115.5t49 114.5t117 47.5q66 0 114 -47.5t48 -114.5t-49 -115.5t-117 -48.5z
" />
    <glyph glyph-name="eth" unicode="&#xf0;" horiz-adv-x="1101" 
d="M469 954l-107 127l158 131q-63 51 -127 70q-45 -100 -149 -100q-67 0 -109.5 42.5t-42.5 110.5q0 83 61.5 133t168.5 50q119 0 233 -60q75 -40 152 -104l182 153l110 -129l-178 -149q103 -134 161 -307t58 -363q0 -296 -155 -448q-131 -131 -340 -131q-218 0 -352 130.5
t-134 340.5q0 199 125 328.5t310 129.5q174 0 272 -123q-34 170 -133 308zM768 446q0 107 -61 175.5t-158 68.5t-158 -68.5t-61 -175.5q0 -110 60.5 -177.5t158.5 -67.5q90 0 151 61q68 62 68 184z" />
    <glyph glyph-name="ntilde" unicode="&#xf1;" horiz-adv-x="1193" 
d="M451 915v-143q146 162 313 162q131 0 205 -74q80 -80 80 -221v-424h118v-215h-501v215h106v348q0 72 -35 107q-30 30 -88 30q-93 0 -190 -77v-408h106v-215h-502v215h119v483h-119v217h388zM776 1042q-99 0 -188 74q-75 66 -121 66q-70 0 -105 -127l-161 43
q17 151 86.5 237t165.5 86q98 0 184 -71q81 -68 125 -68q36 0 60.5 30.5t43.5 98.5l162 -43q-17 -151 -87.5 -238.5t-164.5 -87.5z" />
    <glyph glyph-name="ograve" unicode="&#xf2;" horiz-adv-x="1110" 
d="M555 -18q-150 0 -264.5 65t-173 172t-58.5 238q0 132 59 239.5t173.5 172.5t263.5 65q225 0 360.5 -135.5t135.5 -341.5q0 -97 -35.5 -184t-98.5 -151.5t-157 -102t-205 -37.5zM555 199q95 0 154 70.5t59 187.5q0 120 -59 190t-154 70t-154 -70t-59 -190
q0 -117 59 -187.5t154 -70.5zM586 1018l-316 211q-75 51 -75 125q0 53 38.5 92t88.5 39q71 0 124 -74l220 -315z" />
    <glyph glyph-name="oacute" unicode="&#xf3;" horiz-adv-x="1110" 
d="M555 -18q-150 0 -264.5 65t-173 172t-58.5 238q0 132 59 239.5t173.5 172.5t263.5 65q225 0 360.5 -135.5t135.5 -341.5q0 -97 -35.5 -184t-98.5 -151.5t-157 -102t-205 -37.5zM555 199q95 0 154 70.5t59 187.5q0 120 -59 190t-154 70t-154 -70t-59 -190
q0 -117 59 -187.5t154 -70.5zM526 1018l-80 78l220 315q53 74 125 74q50 0 88.5 -39t38.5 -92q0 -73 -76 -125z" />
    <glyph glyph-name="ocircumflex" unicode="&#xf4;" horiz-adv-x="1110" 
d="M555 -18q-150 0 -264.5 65t-173 172t-58.5 238q0 132 59 239.5t173.5 172.5t263.5 65q225 0 360.5 -135.5t135.5 -341.5q0 -97 -35.5 -184t-98.5 -151.5t-157 -102t-205 -37.5zM555 199q95 0 154 70.5t59 187.5q0 120 -59 190t-154 70t-154 -70t-59 -190
q0 -117 59 -187.5t154 -70.5zM283 1022l-109 125l381 366l379 -366l-109 -125l-270 192z" />
    <glyph glyph-name="otilde" unicode="&#xf5;" horiz-adv-x="1110" 
d="M555 -18q-150 0 -264.5 65t-173 172t-58.5 238q0 132 59 239.5t173.5 172.5t263.5 65q225 0 360.5 -135.5t135.5 -341.5q0 -97 -35.5 -184t-98.5 -151.5t-157 -102t-205 -37.5zM555 199q95 0 154 70.5t59 187.5q0 120 -59 190t-154 70t-154 -70t-59 -190
q0 -117 59 -187.5t154 -70.5zM725 1042q-99 0 -188 74q-75 66 -121 66q-70 0 -105 -127l-161 43q17 151 86 237t165 86q99 0 185 -71q81 -68 125 -68q36 0 60.5 30.5t43.5 98.5l162 -43q-17 -151 -87.5 -238.5t-164.5 -87.5z" />
    <glyph glyph-name="odieresis" unicode="&#xf6;" horiz-adv-x="1110" 
d="M555 -18q-150 0 -264.5 65t-173 172t-58.5 238q0 132 59 239.5t173.5 172.5t263.5 65q225 0 360.5 -135.5t135.5 -341.5q0 -97 -35.5 -184t-98.5 -151.5t-157 -102t-205 -37.5zM555 199q95 0 154 70.5t59 187.5q0 120 -59 190t-154 70t-154 -70t-59 -190
q0 -117 59 -187.5t154 -70.5zM772 1044q-66 0 -114 48.5t-48 115.5t49 114.5t117 47.5q66 0 114 -47.5t48 -114.5t-49 -115.5t-117 -48.5zM334 1044q-66 0 -114 48.5t-48 115.5t49 114.5t117 47.5q66 0 114 -47.5t48 -114.5t-49 -115.5t-117 -48.5z" />
    <glyph glyph-name="divide" unicode="&#xf7;" horiz-adv-x="948" 
d="M852 475h-758v209h758v-209zM473 768q-60 0 -101.5 39.5t-41.5 99.5t42.5 101t104.5 41q60 0 102 -41t42 -101q0 -59 -43 -99t-105 -40zM473 111q-60 0 -101.5 40.5t-41.5 100.5t42.5 99.5t104.5 39.5q61 0 102.5 -39.5t41.5 -99.5t-43 -100.5t-105 -40.5z" />
    <glyph glyph-name="oslash" unicode="&#xf8;" horiz-adv-x="1110" 
d="M555 -18q-131 0 -244 55l-104 -123l-137 115l102 118q-113 128 -113 310q0 130 60 238t174.5 173.5t261.5 65.5q137 0 248 -60l106 127l140 -114l-107 -125q109 -127 109 -305q0 -129 -60 -236.5t-174.5 -173t-261.5 -65.5zM338 457q0 -84 20 -131l306 366
q-50 27 -109 27q-98 0 -157.5 -70t-59.5 -192zM555 197q98 0 156.5 69t58.5 191q0 71 -18 123l-306 -361q52 -22 109 -22z" />
    <glyph glyph-name="ugrave" unicode="&#xf9;" horiz-adv-x="1175" 
d="M432 -18q-132 0 -205 73q-77 77 -77 221v422h-117v217h391v-561q0 -71 37 -108q31 -31 88 -31q93 0 188 78v405h-123v217h400v-700h121v-215h-387v143q-145 -161 -316 -161zM600 1018l-315 211q-76 52 -76 125q0 53 38.5 92t88.5 39q72 0 125 -74l219 -315z" />
    <glyph glyph-name="uacute" unicode="&#xfa;" horiz-adv-x="1175" 
d="M432 -18q-132 0 -205 73q-77 77 -77 221v422h-117v217h391v-561q0 -71 37 -108q31 -31 88 -31q93 0 188 78v405h-123v217h400v-700h121v-215h-387v143q-145 -161 -316 -161zM541 1018l-80 78l219 315q53 74 125 74q50 0 88.5 -39t38.5 -92q0 -73 -76 -125z" />
    <glyph glyph-name="ucircumflex" unicode="&#xfb;" horiz-adv-x="1175" 
d="M432 -18q-132 0 -205 73q-77 77 -77 221v422h-117v217h391v-561q0 -71 37 -108q31 -31 88 -31q93 0 188 78v405h-123v217h400v-700h121v-215h-387v143q-145 -161 -316 -161zM297 1022l-109 125l381 366l379 -366l-108 -125l-271 192z" />
    <glyph glyph-name="udieresis" unicode="&#xfc;" horiz-adv-x="1175" 
d="M432 -18q-132 0 -205 73q-77 77 -77 221v422h-117v217h391v-561q0 -71 37 -108q31 -31 88 -31q93 0 188 78v405h-123v217h400v-700h121v-215h-387v143q-145 -161 -316 -161zM786 1044q-66 0 -113.5 48.5t-47.5 115.5t49 114.5t117 47.5q66 0 113.5 -47.5t47.5 -114.5
t-49 -115.5t-117 -48.5zM348 1044q-66 0 -114 48.5t-48 115.5t49 114.5t117 47.5q66 0 114 -47.5t48 -114.5t-49 -115.5t-117 -48.5z" />
    <glyph glyph-name="yacute" unicode="&#xfd;" horiz-adv-x="1097" 
d="M238 -424q-107 0 -169.5 51t-62.5 131q0 67 39.5 110.5t104.5 43.5q52 0 90 -32t51 -77q10 5 24 19q27 27 52 76l59 127l-317 673h-103v217h500v-206h-121l180 -418l183 418h-119v206h465v-217h-103l-385 -819q-64 -131 -114 -186q-105 -117 -254 -117zM532 1018l-79 78
l219 315q53 74 125 74q50 0 88.5 -39t38.5 -92q0 -73 -76 -125z" />
    <glyph glyph-name="thorn" unicode="&#xfe;" horiz-adv-x="1116" 
d="M-6 -414v213h121v1483h-125v217h399v-674q57 50 116.5 78.5t139.5 28.5q178 0 293 -132.5t115 -336.5q0 -199 -122.5 -339t-301.5 -140q-129 0 -240 86v-271h143v-213h-538zM565 205q83 0 145 67.5t62 188.5t-59 185.5t-148 64.5q-95 0 -176 -74v-375q86 -57 176 -57z
" />
    <glyph glyph-name="ydieresis" unicode="&#xff;" horiz-adv-x="1097" 
d="M238 -424q-107 0 -169.5 51t-62.5 131q0 67 39.5 110.5t104.5 43.5q52 0 90 -32t51 -77q10 5 24 19q27 27 52 76l59 127l-317 673h-103v217h500v-206h-121l180 -418l183 418h-119v206h465v-217h-103l-385 -819q-64 -131 -114 -186q-105 -117 -254 -117zM776 1044
q-66 0 -114 48.5t-48 115.5t49 114.5t117 47.5q66 0 114 -47.5t48 -114.5t-49 -115.5t-117 -48.5zM338 1044q-66 0 -114 48.5t-48 115.5t49 114.5t117 47.5q66 0 114 -47.5t48 -114.5t-49 -115.5t-117 -48.5z" />
    <glyph glyph-name="dotlessi" unicode="&#x131;" horiz-adv-x="632" 
d="M63 0v215h125v483h-125v217h402v-700h121v-215h-523z" />
    <glyph glyph-name="OE" unicode="&#x152;" horiz-adv-x="1923" 
d="M1843 0h-981q-371 0 -579.5 182.5t-208.5 487.5q0 313 203.5 495.5t578.5 182.5h987v-410h-268v170h-361v-315h398v-218h-398v-335h363v178h266v-418zM852 240h72v868h-80q-228 0 -348.5 -113.5t-120.5 -324.5q0 -208 126 -319t351 -111z" />
    <glyph glyph-name="oe" unicode="&#x153;" horiz-adv-x="1732" 
d="M1325 201q162 0 322 86l-21 -228q-139 -77 -338 -77q-120 0 -226 50t-157 126q-56 -81 -150 -128.5t-212 -47.5q-109 0 -200.5 37.5t-153 102.5t-96 151.5t-34.5 183.5q0 129 59 237.5t171 174t254 65.5q118 0 211.5 -47.5t150.5 -126.5q53 81 147 127.5t199 46.5
q205 0 324 -125t119 -317q0 -54 -11 -111h-632q43 -180 274 -180zM555 199q94 0 153.5 71t59.5 187q0 118 -59 189t-154 71t-154 -71t-59 -189q0 -116 59.5 -187t153.5 -71zM1243 721q-71 0 -124.5 -45.5t-69.5 -138.5h381q-5 86 -53.5 135t-133.5 49z" />
    <glyph glyph-name="circumflex" unicode="&#x2c6;" horiz-adv-x="796" 
d="M127 1022l-109 125l381 366l379 -366l-108 -125l-271 192z" />
    <glyph glyph-name="ring" unicode="&#x2da;" horiz-adv-x="638" 
d="M319 1010q-128 0 -210 79t-82 197t82 197.5t210 79.5t210.5 -79.5t82.5 -197.5t-82.5 -197t-210.5 -79zM319 1165q49 0 81 35.5t32 85.5t-32 85.5t-81 35.5t-80.5 -35.5t-31.5 -85.5t31.5 -85.5t80.5 -35.5z" />
    <glyph glyph-name="tilde" unicode="&#x2dc;" horiz-adv-x="880" 
d="M602 1042q-99 0 -188 74q-75 66 -121 66q-70 0 -105 -127l-161 43q17 151 86.5 237t165.5 86q98 0 184 -71q81 -68 125 -68q36 0 60.5 30.5t43.5 98.5l162 -43q-17 -151 -87.5 -238.5t-164.5 -87.5z" />
    <glyph glyph-name="enspace" unicode="&#x2002;" horiz-adv-x="1024" 
 />
    <glyph glyph-name="emspace" unicode="&#x2003;" horiz-adv-x="2048" 
 />
    <glyph glyph-name="threeperemspace" unicode="&#x2004;" horiz-adv-x="681" 
 />
    <glyph glyph-name="fourperemspace" unicode="&#x2005;" horiz-adv-x="512" 
 />
    <glyph glyph-name="figurespace" unicode="&#x2007;" horiz-adv-x="1085" 
 />
    <glyph glyph-name="thinspace" unicode="&#x2009;" horiz-adv-x="272" 
 />
    <glyph glyph-name="hairspace" unicode="&#x200a;" horiz-adv-x="153" 
 />
    <glyph glyph-name="endash" unicode="&#x2013;" horiz-adv-x="1165" 
d="M45 465v229h1075v-229h-1075z" />
    <glyph glyph-name="emdash" unicode="&#x2014;" horiz-adv-x="1751" 
d="M45 465v229h1661v-229h-1661z" />
    <glyph glyph-name="quoteleft" unicode="&#x2018;" horiz-adv-x="526" 
d="M248 711q-76 0 -128 54t-52 150q0 74 33 147.5t117 157.5t214 160l68 -98q-89 -65 -143 -131t-60 -111q58 -18 92.5 -61t34.5 -102q0 -68 -51.5 -117t-124.5 -49z" />
    <glyph glyph-name="quoteright" unicode="&#x2019;" horiz-adv-x="526" 
d="M94 705l-67 98q88 64 142 130.5t60 110.5q-58 19 -92.5 62t-34.5 102q0 68 52 117t125 49q76 0 128 -54.5t52 -150.5q0 -74 -33 -147t-117.5 -157t-214.5 -160z" />
    <glyph glyph-name="quotesinglbase" unicode="&#x201a;" horiz-adv-x="557" 
d="M90 -344l-67 100q92 69 147 138t61 116q-61 18 -97 63t-36 107q0 69 55 120.5t130 51.5q79 0 133.5 -56.5t54.5 -156.5q0 -263 -381 -483z" />
    <glyph glyph-name="quotedblleft" unicode="&#x201c;" horiz-adv-x="1009" 
d="M248 711q-76 0 -128 54t-52 150q0 74 33 147.5t117 157.5t214 160l68 -98q-88 -64 -142.5 -131t-60.5 -111q58 -18 92.5 -61t34.5 -102q0 -68 -51.5 -117t-124.5 -49zM733 711q-77 0 -129.5 54t-52.5 150q0 54 19 109t60.5 115t114.5 122t173 119l65 -98
q-87 -64 -141 -130.5t-62 -111.5q58 -18 93.5 -61t35.5 -102q0 -68 -52 -117t-124 -49z" />
    <glyph glyph-name="quotedblright" unicode="&#x201d;" horiz-adv-x="1011" 
d="M94 705l-67 98q88 64 142 130.5t60 110.5q-58 18 -92.5 61.5t-34.5 102.5q0 68 52 117t125 49q76 0 128 -54.5t52 -150.5q0 -74 -33 -147t-117.5 -157t-214.5 -160zM578 705l-66 98q87 64 141 130.5t62 110.5q-58 18 -93.5 61.5t-35.5 102.5q0 68 52 117t124 49
q77 0 129.5 -54.5t52.5 -150.5q0 -115 -86 -234t-280 -230z" />
    <glyph glyph-name="quotedblbase" unicode="&#x201e;" horiz-adv-x="1038" 
d="M578 -334l-66 98q88 64 141.5 131t61.5 113q-58 18 -93.5 60.5t-35.5 101.5q0 68 52 117t124 49q78 0 130 -53.5t52 -151.5q0 -115 -82.5 -228.5t-283.5 -236.5zM94 -334l-67 98q88 65 142 132t60 112q-58 18 -92.5 60.5t-34.5 101.5q0 68 52 117t125 49
q77 0 128.5 -53.5t51.5 -151.5q0 -114 -83 -227t-282 -238z" />
    <glyph glyph-name="dagger" unicode="&#x2020;" horiz-adv-x="1112" 
d="M496 33l-60 760l-114 12q-7 -53 -44.5 -86t-89.5 -33q-60 0 -97.5 39.5t-37.5 99.5q0 68 50 113t133 45q44 0 81 -12l170 -43l-65 278q-21 71 24 124.5t109 53.5q67 0 109.5 -52.5t25.5 -125.5l-67 -278l170 43q41 12 81 12q84 0 134.5 -45t50.5 -113q0 -60 -38.5 -99.5
t-98.5 -39.5q-52 0 -88.5 33t-42.5 86l-115 -12l-60 -760h-120z" />
    <glyph glyph-name="daggerdbl" unicode="&#x2021;" horiz-adv-x="1153" 
d="M575 -225q-67 0 -106.5 54t-19.5 134l67 244l-166 -39q-44 -12 -74 -12q-81 0 -132.5 41.5t-51.5 109.5q0 58 36 94.5t95 36.5q51 0 87 -31.5t42 -87.5l103 9l53 252l-53 251l-103 9q-6 -56 -42 -87.5t-87 -31.5q-59 0 -95 36.5t-36 94.5q0 68 52 110t132 42q27 0 74 -13
l166 -39l-67 244q-19 83 19.5 135.5t106.5 52.5q69 0 109 -53.5t18 -134.5l-65 -244l166 39q47 13 74 13q80 0 131 -42t51 -110q0 -57 -36 -94t-93 -37q-53 0 -89 31.5t-40 87.5l-103 -9l-55 -251l55 -252l103 -9q4 56 40 87.5t89 31.5q57 0 93 -37t36 -94q0 -68 -51 -109.5
t-131 -41.5q-31 0 -74 12l-166 39l65 -244q22 -81 -18 -134.5t-109 -53.5z" />
    <glyph glyph-name="bullet" unicode="&#x2022;" horiz-adv-x="704" 
d="M352 305q-109 0 -185.5 78t-76.5 188q0 111 77 190t185 79t185 -79t77 -190q0 -110 -76.5 -188t-185.5 -78z" />
    <glyph glyph-name="ellipsis" unicode="&#x2026;" horiz-adv-x="1476" 
d="M1229 -16q-72 0 -123 51t-51 123q0 73 51 124.5t123 51.5t123 -51.5t51 -124.5q0 -72 -51 -123t-123 -51zM737 -16q-72 0 -123 51t-51 123q0 73 51 124.5t123 51.5q73 0 124.5 -51t51.5 -125q0 -72 -51.5 -123t-124.5 -51zM248 -16q-73 0 -124.5 51t-51.5 123
q0 74 51 125t125 51q72 0 123 -51.5t51 -124.5q0 -72 -51 -123t-123 -51z" />
    <glyph glyph-name="perthousand" unicode="&#x2030;" horiz-adv-x="2103" 
d="M377 545q-122 0 -208.5 81.5t-86.5 198.5q0 118 86.5 199.5t208.5 81.5q123 0 208 -81.5t85 -199.5q0 -117 -85 -198.5t-208 -81.5zM377 705q48 0 78 33t30 87t-30 86.5t-78 32.5q-50 0 -80.5 -32.5t-30.5 -86.5t30.5 -87t80.5 -33zM1081 545q123 0 208 -82t85 -199
q0 -118 -85 -200t-208 -82q-122 0 -208.5 82t-86.5 200q0 117 86.5 199t208.5 82zM1081 385q-49 0 -79.5 -33.5t-30.5 -87.5t30.5 -87.5t79.5 -33.5q48 0 78.5 33.5t30.5 87.5t-30.5 87.5t-78.5 33.5zM289 -31l-105 103q338 338 508 518q326 349 479 530l105 -102
q-19 -19 -128.5 -127t-203.5 -203t-172 -178q-114 -121 -258 -283.5t-225 -257.5zM1726 545q123 0 208 -82t85 -199q0 -118 -85 -200t-208 -82q-122 0 -208 82t-86 200q0 117 86 199t208 82zM1726 385q-49 0 -79.5 -33.5t-30.5 -87.5t30.5 -87.5t79.5 -33.5q48 0 78.5 33.5
t30.5 87.5t-30.5 87.5t-78.5 33.5z" />
    <glyph glyph-name="guilsinglleft" unicode="&#x2039;" horiz-adv-x="675" 
d="M461 176l-424 406l424 405l149 -149l-243 -256l243 -256z" />
    <glyph glyph-name="guilsinglright" unicode="&#x203a;" horiz-adv-x="675" 
d="M213 176l-150 150l246 256l-246 256l150 149l426 -405z" />
    <glyph glyph-name="fraction" unicode="&#x2044;" horiz-adv-x="1024" 
d="M152 -33l-117 78q23 34 203 302.5t229 342.5q30 50 206.5 331.5t198.5 326.5l117 -78q-14 -21 -107.5 -158.5t-187 -277t-133.5 -199.5q-65 -98 -220 -352t-189 -316z" />
    <glyph glyph-name="four.sup" unicode="&#x2074;" 
d="M274 885v116h132v97h-318l-49 94l367 465l126 -88l-305 -359h181v107l149 67v-165h109v-127h-109v-88h76v-119h-359z" />
    <glyph glyph-name="Euro" unicode="&#x20ac;" horiz-adv-x="1351" 
d="M78 598v168h186q63 155 207 249.5t330 94.5q204 0 328 -93.5t124 -217.5q0 -76 -49 -122t-119 -46q-66 0 -109.5 42t-43.5 105q0 43 20 76q-60 35 -153 35q-86 0 -156 -35.5t-113 -101.5h269v-154h-324q-2 -16 -2 -51t2 -51h324v-154h-269q89 -137 279 -137
q163 0 305 135l141 -174q-183 -186 -454 -186q-198 0 -341.5 92t-203.5 258h-178v166h145v47q0 37 2 55h-147z" />
    <glyph glyph-name="trademark" unicode="&#x2122;" horiz-adv-x="1421" 
d="M647 809v113h64l14 313h-70v113h234l119 -261l112 261h226v-113h-70l16 -313h62v-113h-258v111h61l-10 235l-123 -258h-47l-127 258l-10 -235h61v-111h-254zM172 809v113h72v317h-80v-100h-121v209h541v-209h-121v100h-80v-317h72v-113h-283z" />
    <glyph glyph-name="onethird" horiz-adv-x="1628" 
d="M88 575v150h184v414l-159 -41l-39 143l280 78h90v-594h168v-150h-524zM461 -33l-117 78q23 34 203 302.5t229 342.5q30 51 207 332t199 326l116 -78q-14 -21 -107.5 -158.5t-187 -277t-133.5 -199.5q-65 -98 -220 -352t-189 -316zM1255 -18q-131 0 -207.5 49.5
t-76.5 128.5q0 43 28 72.5t70 29.5t69 -26t27 -64q0 -22 -6 -37q47 -20 94 -20q51 0 86 24.5t35 69.5q0 42 -35 71t-118 29h-54v123h56q70 0 104.5 27t34.5 73q0 39 -31.5 59.5t-77.5 20.5q-36 0 -69 -14q6 -15 6 -35q0 -41 -27.5 -67.5t-68.5 -26.5t-69 30t-28 74
q0 64 69.5 118t193.5 54q118 0 195 -56.5t77 -141.5q0 -63 -42.5 -108.5t-107.5 -65.5q65 -14 115.5 -61.5t50.5 -123.5q0 -94 -83 -150t-210 -56z" />
    <glyph glyph-name="twothirds" horiz-adv-x="1628" 
d="M645 573h-539q-1 0 -26 41l-23 43q25 59 60.5 110.5t77.5 91t72.5 63.5t72.5 53q47 32 64.5 45t34 36.5t16.5 49.5q0 41 -28.5 62.5t-78.5 21.5q-31 0 -60 -9t-40 -20q26 -19 26 -59q0 -37 -26.5 -63.5t-67.5 -26.5q-51 0 -75.5 32t-24.5 80q0 86 75 145.5t203 59.5
q119 0 194 -62.5t75 -160.5q0 -53 -27.5 -98t-57.5 -68.5t-77 -52.5q-44 -27 -73.5 -46.5t-68.5 -55.5t-65 -74h246v116h141v-254zM494 -33l-117 78q23 34 203 302.5t229 342.5q30 50 206.5 331.5t198.5 326.5l117 -78q-14 -21 -107.5 -158.5t-187 -277t-133.5 -199.5
q-65 -98 -220 -352t-189 -316zM1262 -18q-131 0 -208 49.5t-77 128.5q0 43 28 72.5t70 29.5t69 -26t27 -64q0 -22 -6 -37q47 -20 95 -20q51 0 85.5 24.5t34.5 69.5q0 42 -35 71t-118 29h-53v123h55q70 0 104.5 27t34.5 73q0 39 -31 59.5t-77 20.5q-37 0 -70 -14q6 -15 6 -35
q0 -41 -27.5 -67.5t-68.5 -26.5t-68.5 30t-27.5 74q0 64 69 118t193 54q118 0 195 -56.5t77 -141.5q0 -63 -42 -108.5t-107 -65.5q65 -14 115 -61.5t50 -123.5q0 -94 -83 -150t-209 -56z" />
    <glyph glyph-name="onefifth" horiz-adv-x="1628" 
d="M92 575v150h184v414l-159 -41l-39 143l280 78h91v-594h167v-150h-524zM463 -33l-117 78q23 34 203 302.5t229 342.5q30 51 207 332t199 326l116 -78q-14 -21 -107.5 -158.5t-187 -277t-133.5 -199.5q-65 -98 -220 -352t-189 -316zM1262 -18q-137 0 -206 47t-69 110
q0 43 26.5 70t73.5 27q45 0 71 -27t26 -62q0 -8 -4 -20q42 -6 67 -6q67 0 104.5 31.5t37.5 85.5q0 51 -34.5 80.5t-99.5 29.5q-68 0 -149 -31l-88 39l37 381h454v-149h-313l-8 -119q46 12 98 12q118 0 194 -65.5t76 -175.5q0 -114 -80.5 -186t-213.5 -72z" />
    <glyph glyph-name="twofifths" horiz-adv-x="1628" 
d="M645 573h-539q-1 0 -26 41l-23 43q25 59 60.5 110.5t77.5 91t72.5 63.5t72.5 53q47 32 64.5 45t34 36.5t16.5 49.5q0 41 -28.5 62.5t-78.5 21.5q-31 0 -60 -9t-40 -20q26 -19 26 -59q0 -37 -26.5 -63.5t-67.5 -26.5q-51 0 -75.5 32t-24.5 80q0 86 75 145.5t203 59.5
q119 0 194 -62.5t75 -160.5q0 -53 -27.5 -98t-57.5 -68.5t-77 -52.5q-44 -27 -73.5 -46.5t-68.5 -55.5t-65 -74h246v116h141v-254zM498 -33l-117 78q23 34 203 302.5t229 342.5q30 51 207 332t199 326l116 -78q-14 -21 -107.5 -158.5t-187 -277t-133.5 -199.5
q-65 -98 -220 -352t-189 -316zM1272 -18q-137 0 -206 47t-69 110q0 43 27 70t74 27q45 0 70.5 -27t25.5 -62q0 -8 -4 -20q42 -6 67 -6q67 0 104.5 31.5t37.5 85.5q0 51 -34 80.5t-99 29.5q-69 0 -150 -31l-88 39l37 381h455v-149h-314l-8 -119q46 12 98 12
q118 0 194.5 -65.5t76.5 -175.5q0 -114 -80.5 -186t-214.5 -72z" />
    <glyph glyph-name="threefifths" horiz-adv-x="1628" 
d="M356 559q-131 0 -207.5 49.5t-76.5 128.5q0 43 28 73t70 30t69 -26t27 -64q0 -22 -6 -37q49 -21 94 -21q51 0 86 24.5t35 69.5q0 42 -35 71.5t-118 29.5h-54v123h56q70 0 104.5 27t34.5 73q0 39 -31.5 59.5t-77.5 20.5q-36 0 -69 -14q6 -15 6 -35q0 -41 -27.5 -67.5
t-68.5 -26.5t-69 30t-28 74q0 64 69 118t193 54q118 0 195.5 -57t77.5 -142q0 -63 -42.5 -108.5t-107.5 -65.5q66 -14 116 -61t50 -123q0 -94 -83.5 -150.5t-209.5 -56.5zM461 -33l-117 78q23 34 203 302.5t229 342.5q30 51 207 332t199 326l116 -78q-14 -21 -107.5 -158.5
t-187 -277t-133.5 -199.5q-65 -98 -220 -352t-189 -316zM1260 -18q-137 0 -206 47t-69 110q0 43 26.5 70t73.5 27q45 0 71 -27t26 -62q0 -8 -4 -20q42 -6 67 -6q67 0 104 31.5t37 85.5q0 51 -34 80.5t-99 29.5q-68 0 -149 -31l-88 39l37 381h454v-149h-313l-8 -119
q46 12 98 12q118 0 194 -65.5t76 -175.5q0 -114 -80.5 -186t-213.5 -72z" />
    <glyph glyph-name="fourfifths" horiz-adv-x="1628" 
d="M283 578v116h131v97h-318l-49 94l367 465l127 -88l-305 -359h180v107l149 67v-166h109v-127h-109v-88h76v-118h-358zM508 -33l-117 78q23 34 203 302.5t229 342.5q30 51 207 332t199 326l117 -78q-14 -21 -107.5 -158.5t-187 -277t-133.5 -199.5q-65 -99 -220.5 -353
t-189.5 -315zM1274 -18q-137 0 -206 47t-69 110q0 43 27 70t74 27q45 0 70.5 -27t25.5 -62q0 -8 -4 -20q42 -6 68 -6q67 0 104 31.5t37 85.5q0 51 -34 80.5t-99 29.5q-69 0 -150 -31l-88 39l37 381h455v-149h-314l-8 -119q46 12 98 12q118 0 194.5 -65.5t76.5 -175.5
q0 -114 -80.5 -186t-214.5 -72z" />
    <glyph glyph-name="onesixth" horiz-adv-x="1628" 
d="M98 575v150h185v414l-160 -41l-39 143l281 78h90v-594h168v-150h-525zM475 -33l-117 78q22 34 203 302.5t230 342.5q30 50 206.5 331.5t198.5 326.5l117 -78q-14 -21 -107.5 -158.5t-187 -277t-133.5 -199.5q-65 -99 -220.5 -353t-189.5 -315zM1520 602q0 -41 -26 -66.5
t-67 -25.5q-44 0 -68 26.5t-24 59.5v12q-28 4 -35 4q-67 0 -115.5 -60.5t-49.5 -152.5q67 64 165 64q110 0 180 -64.5t70 -167.5q0 -110 -79.5 -179.5t-202.5 -69.5q-124 0 -203 79q-53 50 -74.5 118.5t-21.5 174.5q0 177 92.5 287.5t238.5 110.5q119 0 181 -62
q39 -39 39 -88zM1268 121q50 0 83 31.5t33 76.5q0 48 -31 75.5t-87 27.5q-54 0 -87.5 -29t-33.5 -74q0 -49 37 -79q42 -29 86 -29z" />
    <glyph glyph-name="fivesixths" horiz-adv-x="1628" 
d="M352 559q-137 0 -205.5 47.5t-68.5 110.5q0 43 26.5 69.5t73.5 26.5q45 0 70.5 -26.5t25.5 -61.5q0 -8 -4 -20q49 -7 68 -7q67 0 104 31.5t37 85.5q0 51 -34.5 81t-98.5 30q-68 0 -149 -31l-88 39l36 381h455v-150h-313l-8 -118q46 12 98 12q118 0 194 -66t76 -176
q0 -114 -80.5 -186t-214.5 -72zM467 -33l-117 78q23 34 203 302.5t229 342.5q30 51 207 332t199 326l117 -78q-14 -21 -107.5 -158.5t-187 -277t-133.5 -199.5q-65 -99 -220.5 -353t-189.5 -315zM1516 602q0 -41 -26 -66.5t-67 -25.5q-44 0 -68 26.5t-24 59.5v12
q-28 4 -35 4q-67 0 -116 -60.5t-50 -152.5q67 64 166 64q110 0 180 -64.5t70 -167.5q0 -110 -79.5 -179.5t-202.5 -69.5q-124 0 -203 79q-53 50 -74.5 118.5t-21.5 174.5q0 177 92.5 287.5t238.5 110.5q119 0 181 -62q39 -39 39 -88zM1264 121q50 0 83 31.5t33 76.5
q0 48 -31 75.5t-87 27.5q-54 0 -87.5 -29t-33.5 -74q0 -49 37 -79q42 -29 86 -29z" />
    <glyph glyph-name="oneeighth" horiz-adv-x="1628" 
d="M88 575v150h184v414l-159 -41l-39 143l280 78h90v-594h168v-150h-524zM459 -33l-117 78q23 34 203 302.5t229 342.5q30 51 207 332t199 326l116 -78q-14 -21 -107.5 -158.5t-187 -277t-133.5 -199.5q-65 -98 -220 -352t-189 -316zM1255 -16q-138 0 -218.5 59.5
t-80.5 142.5q0 61 39 111t121 78q-143 45 -143 170q0 82 78 142.5t204 60.5q125 0 205 -61t80 -142q0 -123 -147 -170q83 -28 123 -78t40 -111q0 -82 -82 -142t-219 -60zM1255 430q46 0 77.5 25t31.5 65q0 41 -30.5 65.5t-78.5 24.5t-77 -24.5t-29 -65.5q0 -40 30.5 -65
t75.5 -25zM1255 123q54 0 88.5 28t34.5 66q0 40 -34 68t-89 28t-87.5 -28t-32.5 -68q0 -38 33 -66t87 -28z" />
    <glyph glyph-name="threeeighths" horiz-adv-x="1628" 
d="M354 559q-131 0 -207.5 49.5t-76.5 128.5q0 43 28 73t70 30t69 -26t27 -64q0 -22 -6 -37q49 -21 94 -21q51 0 86 24.5t35 69.5q0 42 -35.5 71.5t-118.5 29.5h-53v123h56q70 0 104.5 27t34.5 73q0 39 -31.5 59.5t-77.5 20.5q-36 0 -69 -14q6 -15 6 -35q0 -41 -27.5 -67.5
t-68.5 -26.5t-69 30t-28 74q0 64 69 118t193 54q118 0 195.5 -57t77.5 -142q0 -63 -42.5 -108.5t-107.5 -65.5q66 -14 116 -61t50 -123q0 -94 -83.5 -150.5t-209.5 -56.5zM461 -33l-117 78q23 34 203 302.5t229 342.5q30 51 207 332t199 326l116 -78q-14 -21 -107.5 -158.5
t-187 -277t-133.5 -199.5q-65 -98 -220 -352t-189 -316zM1251 -16q-138 0 -218.5 59.5t-80.5 142.5q0 61 39 111t121 78q-143 45 -143 170q0 82 78 142.5t204 60.5q125 0 205 -61t80 -142q0 -123 -147 -170q83 -28 123 -78t40 -111q0 -82 -82 -142t-219 -60zM1251 430
q46 0 77.5 25t31.5 65q0 41 -30.5 65.5t-78.5 24.5t-77 -24.5t-29 -65.5q0 -40 30.5 -65t75.5 -25zM1251 123q54 0 88.5 28t34.5 66q0 40 -34 68t-89 28t-88 -28t-33 -68q0 -38 33.5 -66t87.5 -28z" />
    <glyph glyph-name="fiveeighths" horiz-adv-x="1628" 
d="M350 559q-137 0 -205.5 47.5t-68.5 110.5q0 43 26.5 69.5t73.5 26.5q45 0 70.5 -26.5t25.5 -61.5q0 -8 -4 -20q49 -7 68 -7q67 0 104 31.5t37 85.5q0 51 -34.5 81t-98.5 30q-68 0 -149 -31l-89 39l37 381h455v-150h-313l-9 -118q46 12 99 12q118 0 194 -66t76 -176
q0 -114 -80.5 -186t-214.5 -72zM457 -33l-117 78q23 34 203 302.5t229 342.5q30 51 207 332t199 326l116 -78q-14 -21 -107.5 -158.5t-187 -277t-133.5 -199.5q-65 -98 -220 -352t-189 -316zM1253 -16q-138 0 -218.5 59.5t-80.5 142.5q0 61 39 111t121 78q-143 45 -143 170
q0 82 78 142.5t204 60.5q125 0 205 -61t80 -142q0 -123 -147 -170q83 -28 123 -78t40 -111q0 -82 -82 -142t-219 -60zM1253 430q46 0 77.5 25t31.5 65q0 41 -30.5 65.5t-78.5 24.5t-77 -24.5t-29 -65.5q0 -40 30.5 -65t75.5 -25zM1253 123q54 0 88.5 28t34.5 66q0 40 -34 68
t-89 28t-87.5 -28t-32.5 -68q0 -38 33 -66t87 -28z" />
    <glyph glyph-name="seveneighths" horiz-adv-x="1628" 
d="M205 573l293 603h-232v-142h-153v281h532l47 -101l-297 -641h-190zM389 -33l-117 78q22 34 203 302.5t230 342.5q30 50 206.5 331.5t198.5 326.5l117 -78q-14 -21 -107.5 -158.5t-187 -277t-133.5 -199.5q-65 -99 -220.5 -353t-189.5 -315zM1227 -16q-138 0 -218.5 59.5
t-80.5 142.5q0 61 38.5 111t120.5 78q-143 45 -143 170q0 82 78.5 142.5t204.5 60.5q125 0 204.5 -61t79.5 -142q0 -123 -147 -170q84 -28 124 -78t40 -111q0 -82 -82 -142t-219 -60zM1227 430q46 0 77 25t31 65q0 41 -30 65.5t-78 24.5t-77.5 -24.5t-29.5 -65.5
q0 -40 31 -65t76 -25zM1227 123q54 0 88.5 28t34.5 66q0 40 -34 68t-89 28t-88 -28t-33 -68q0 -38 33.5 -66t87.5 -28z" />
    <glyph glyph-name="minus" unicode="&#x2212;" horiz-adv-x="948" 
d="M94 475v209h758v-209h-758z" />
    <glyph glyph-name="i.dot" horiz-adv-x="632" 
d="M305 1042q-74 0 -126 52t-52 125t53 123.5t127 50.5q75 0 126.5 -50.5t51.5 -123.5t-53 -125t-127 -52zM586 0h-523v215h125v483h-125v217h402v-700h121v-215z" />
    <glyph glyph-name="zero.num" 
d="M360 559q-142 0 -224.5 102.5t-82.5 276.5q0 178 83 281.5t226 103.5q141 0 224.5 -103.5t83.5 -277.5q0 -178 -83.5 -280.5t-226.5 -102.5zM360 713q61 0 95 58t34 167q0 111 -34 171t-95 60q-60 0 -93.5 -58.5t-33.5 -168.5t33.5 -169.5t93.5 -59.5z" />
    <glyph glyph-name="one.num" 
d="M111 575v150h184v414l-160 -41l-39 143l281 78h90v-594h168v-150h-524z" />
    <glyph glyph-name="two.num" 
d="M647 573h-538q-2 0 -27 41l-23 43q25 59 60.5 110.5t77.5 91t72.5 63.5t72.5 53q47 32 64.5 45t34 36.5t16.5 49.5q0 41 -28.5 62.5t-78.5 21.5q-31 0 -60 -9t-40 -20q26 -19 26 -59q0 -37 -26.5 -63.5t-67.5 -26.5q-51 0 -75.5 32t-24.5 80q0 86 75 145.5t203 59.5
q119 0 194 -62.5t75 -160.5q0 -53 -27.5 -98t-57.5 -68.5t-77 -52.5q-44 -27 -73.5 -46.5t-68.5 -55.5t-65 -74h246v116h141v-254z" />
    <glyph glyph-name="three.num" 
d="M350 559q-131 0 -207.5 49.5t-76.5 128.5q0 43 28 73t70 30t69 -26t27 -64q0 -22 -6 -37q49 -21 94 -21q51 0 86 24.5t35 69.5q0 42 -35.5 71.5t-118.5 29.5h-53v123h55q70 0 105 27t35 73q0 39 -31.5 59.5t-77.5 20.5q-36 0 -69 -14q6 -15 6 -35q0 -41 -27.5 -67.5
t-69.5 -26.5q-41 0 -68.5 30t-27.5 74q0 64 69 118t193 54q118 0 195.5 -57t77.5 -142q0 -63 -42.5 -108.5t-107.5 -65.5q66 -14 116 -61t50 -123q0 -94 -83.5 -150.5t-209.5 -56.5z" />
    <glyph glyph-name="four.num" 
d="M274 578v116h132v97h-318l-49 94l367 465l126 -88l-305 -359h181v107l149 67v-166h109v-127h-109v-88h76v-118h-359z" />
    <glyph glyph-name="five.num" 
d="M350 559q-137 0 -205.5 47.5t-68.5 110.5q0 43 26.5 69.5t73.5 26.5q45 0 70.5 -26.5t25.5 -61.5q0 -8 -4 -20q49 -7 68 -7q67 0 104 31.5t37 85.5q0 51 -34.5 81t-98.5 30q-68 0 -149 -31l-89 39l37 381h455v-150h-313l-9 -118q46 12 99 12q118 0 194 -66t76 -176
q0 -114 -80.5 -186t-214.5 -72z" />
    <glyph glyph-name="six.num" 
d="M621 1180q0 -41 -26 -67t-67 -26q-44 0 -68 27t-24 60v12q-28 4 -35 4q-67 0 -115.5 -60.5t-49.5 -152.5q66 63 165 63q110 0 180 -64t70 -167q0 -110 -79.5 -180t-202.5 -70t-203 80q-53 50 -74.5 118.5t-21.5 174.5q0 177 92.5 287t238.5 110q120 0 181 -61
q39 -39 39 -88zM369 698q50 0 83 32t33 77q0 48 -31 75t-87 27q-54 0 -87.5 -28.5t-33.5 -73.5q0 -50 37 -80q42 -29 86 -29z" />
    <glyph glyph-name="seven.num" 
d="M182 573l293 603h-231v-142h-154v281h533l47 -101l-297 -641h-191z" />
    <glyph glyph-name="eight.num" 
d="M360 561q-138 0 -218.5 60t-80.5 143q0 61 39 110.5t121 77.5q-143 45 -143 170q0 82 78 142.5t204 60.5q125 0 205 -61t80 -142q0 -123 -147 -170q84 -28 124 -77.5t40 -110.5q0 -82 -82.5 -142.5t-219.5 -60.5zM360 1008q46 0 77.5 25t31.5 65q0 41 -30.5 65.5
t-78.5 24.5t-77 -24.5t-29 -65.5q0 -40 30.5 -65t75.5 -25zM360 700q54 0 88.5 28.5t34.5 66.5q0 40 -34 68t-89 28t-87.5 -28t-32.5 -68q0 -38 33.5 -66.5t86.5 -28.5z" />
    <glyph glyph-name="nine.num" 
d="M102 709q0 41 26 66.5t67 25.5q44 0 68 -26.5t24 -59.5q0 -11 -2 -13q28 -4 37 -4q67 0 114 59t51 154q-66 -63 -165 -63q-110 0 -180 64t-70 167q0 110 79.5 180t202.5 70t203 -80q53 -50 74.5 -118.5t21.5 -174.5q0 -177 -92.5 -287t-238.5 -110q-119 0 -181 62
q-39 39 -39 88zM354 1190q-50 0 -83 -32t-33 -77q0 -48 31 -75t87 -27q54 0 87.5 28.5t33.5 73.5q0 50 -37 80q-42 29 -86 29z" />
    <glyph glyph-name="zero.den" 
d="M360 -18q-142 0 -224.5 102t-82.5 276q0 178 83 281.5t226 103.5q141 0 224.5 -103.5t83.5 -276.5q0 -178 -83.5 -280.5t-226.5 -102.5zM360 135q61 0 95 58t34 167q0 111 -34 171.5t-95 60.5q-60 0 -93.5 -58.5t-33.5 -168.5t33.5 -170t93.5 -60z" />
    <glyph glyph-name="one.den" 
d="M111 -2v149h184v414l-160 -41l-39 144l281 77h90v-594h168v-149h-524z" />
    <glyph glyph-name="two.den" 
d="M647 -4h-538q-2 0 -27 41l-23 43q25 59 60.5 110t78 91t72.5 63.5t72 52.5q47 32 64.5 45t34 36.5t16.5 49.5q0 41 -28.5 62.5t-78.5 21.5q-31 0 -60 -8.5t-40 -19.5q26 -19 26 -60q0 -37 -26.5 -63.5t-67.5 -26.5q-51 0 -75.5 32t-24.5 81q0 86 75 145.5t203 59.5
q118 0 193.5 -63t75.5 -161q0 -53 -27.5 -98t-57.5 -68.5t-77 -52.5q-44 -27 -73.5 -46.5t-68.5 -55.5t-65 -74h246v117h141v-254z" />
    <glyph glyph-name="three.den" 
d="M350 -18q-131 0 -207.5 49.5t-76.5 128.5q0 43 28 72.5t70 29.5t69 -26t27 -64q0 -22 -6 -37q47 -20 94 -20q51 0 86 24.5t35 69.5q0 42 -35.5 71t-118.5 29h-53v123h55q70 0 105 27t35 73q0 39 -31.5 59.5t-77.5 20.5q-36 0 -69 -14q6 -15 6 -35q0 -41 -27.5 -67.5
t-69.5 -26.5q-41 0 -68.5 30t-27.5 74q0 64 69 118t193 54q118 0 195.5 -56.5t77.5 -141.5q0 -63 -42.5 -108.5t-107.5 -65.5q65 -14 115.5 -61.5t50.5 -123.5q0 -94 -83 -150t-210 -56z" />
    <glyph glyph-name="four.den" 
d="M274 0v117h132v96h-318l-49 94l367 465l126 -88l-305 -358h181v106l149 68v-166h109v-127h-109v-88h76v-119h-359z" />
    <glyph glyph-name="five.den" 
d="M350 -18q-137 0 -205.5 47t-68.5 110q0 43 27 70t73 27q45 0 70.5 -27t25.5 -62q0 -8 -4 -20q42 -6 68 -6q67 0 104 31.5t37 85.5q0 51 -34 80.5t-99 29.5q-68 0 -149 -31l-89 39l37 381h455v-149h-313l-9 -119q46 12 99 12q118 0 194 -65.5t76 -175.5q0 -114 -80.5 -186
t-214.5 -72z" />
    <glyph glyph-name="six.den" 
d="M621 602q0 -41 -26 -66.5t-67 -25.5q-44 0 -68 26.5t-24 59.5v12q-28 4 -35 4q-67 0 -115.5 -60.5t-49.5 -152.5q67 64 165 64q110 0 180 -64.5t70 -167.5q0 -110 -79.5 -179.5t-202.5 -69.5q-124 0 -203 79q-53 50 -74.5 118.5t-21.5 174.5q0 177 92.5 287.5
t238.5 110.5q119 0 181 -62q39 -39 39 -88zM369 121q50 0 83 31.5t33 76.5q0 48 -31 75.5t-87 27.5q-54 0 -87.5 -29t-33.5 -74q0 -49 37 -79q42 -29 86 -29z" />
    <glyph glyph-name="seven.den" 
d="M182 -4l293 602h-231v-141h-154v280h533l47 -100l-297 -641h-191z" />
    <glyph glyph-name="eight.den" 
d="M360 -16q-138 0 -218.5 59.5t-80.5 142.5q0 61 39 111t121 78q-143 45 -143 170q0 82 78 142.5t204 60.5q125 0 205 -61t80 -142q0 -123 -147 -170q84 -28 124 -78t40 -111q0 -82 -82.5 -142t-219.5 -60zM360 430q46 0 77.5 25t31.5 65q0 41 -30.5 65.5t-78.5 24.5
t-77 -24.5t-29 -65.5q0 -40 30.5 -65t75.5 -25zM360 123q54 0 88.5 28t34.5 66q0 40 -34 68t-89 28t-87.5 -28t-32.5 -68q0 -38 33 -66t87 -28z" />
    <glyph glyph-name="nine.den" 
d="M102 131q0 41 26 66.5t67 25.5q44 0 68 -26.5t24 -59.5q0 -10 -2 -12q28 -4 37 -4q67 0 114 59t51 154q-67 -64 -165 -64q-110 0 -180 64.5t-70 167.5q0 110 79.5 180t202.5 70t203 -80q53 -50 74.5 -118.5t21.5 -174.5q0 -177 -92.5 -287t-238.5 -110q-120 0 -181 61
q-39 39 -39 88zM354 612q-50 0 -83 -31.5t-33 -76.5q0 -48 31 -75.5t87 -27.5q54 0 87.5 29t33.5 74q0 50 -37 80q-40 28 -86 28z" />
    </font>
</defs>
</svg>
